TORRENTS43.COM

Скачать Бесстыдники / Shameless (UK) [S1xE1-7] (2004) DVDRip (AlexFilm)


Бесстыдники / Shameless (UK) [S1xE1-7] (2004) DVDRip (AlexFilm)
Русское название: Бесстыдники
Оригинальное название: Shameless (UK)
Год выпуска: 2004
Жанр: Драма, Комедия

Перевод: Многоголосый закадровый, профессиональный
Язык: Русский, Английский
Озвучка / Автор перевода: AlexFilm
Вид субтитров: Отдельным файлом
Язык субтитров: русские, английские


Дата мировой премьеры: 13 января 2004

Режиссер: Марк Майлод, Джонни Кэмпбелл, Дирбла Уолш
Актеры: Дэвид Трелфолл, Герард Кернс, Ребекка Райан, Эллиотт Титтенсор, Джоди Лэтэм, Ребекка Эткинсон, Келли Холлис, Мэгги О`Нейлл, Марджори Йэтс, Линдси Даусон и Джеймс Макэвой

Описание фильма:
"Никто и не говорит, что Чатсворт Эстейт - это райские кущи, но нам тут неплохо живётся - мне, Фрэнку Галлахеру, и моим детям, которыми я горжусь, потому что каждый из них хоть чуточку, но на меня похож. Все они могут о себе сами позаботиться, пусть за это мне спасибо скажут..."
Сериал о жизни многодетной семьи, оставленной сбежавшей мамашей на попечения отца - Фрэнка Галлахера, алкоголика и идейного тунеядца.

Продолжительность: 7 ~ 48 мин
Качество видео: DVDRip
Сэмпл: Скачать

Видеокодек: Xvid
Битрейт видео: ~1420 kbps avg
Размер кадра: 704x400 (1.76:1)
Аудиокодек: MP3
Битрейт аудио rus: ~128.00 kbps avg
Битрейт аудио eng: ~128.00 kbps avg

MediaInfo

Format : AVI
Format/Info : Audio Video Interleave
File size : 590 MiB
Duration : 48mn 46s
Overall bit rate : 1 692 Kbps
Writing application : VirtualDubMod 1.5.10.2 (build 2542/release)
Writing library : VirtualDubMod build 2542/release

Video
ID : 0
Format : MPEG-4 Visual
Format profile : Advanced Simple@L5
Format settings, BVOP : 1
Format settings, QPel : No
Format settings, GMC : No warppoints
Format settings, Matrix : Default (MPEG)
Codec ID : XVID
Codec ID/Hint : XviD
Duration : 48mn 46s
Bit rate : 1 421 Kbps
Width : 704 pixels
Height : 400 pixels
Display aspect ratio : 16:9
Frame rate : 25.000 fps
Color space : YUV
Chroma subsampling : 4:2:0
Bit depth : 8 bits
Scan type : Progressive
Compression mode : Lossy
Bits/(Pixel*Frame) : 0.202
Stream size : 496 MiB (84%)
Writing library : XviD 1.2.1 (UTC 2008-12-04)

Audio #1
ID : 1
Format : MPEG Audio
Format version : Version 1
Format profile : Layer 3
Mode : Joint stereo
Mode extension : MS Stereo
Codec ID : 55
Codec ID/Hint : MP3
Duration : 48mn 46s
Bit rate mode : Constant
Bit rate : 128 Kbps
Channel(s) : 2 channels
Sampling rate : 48.0 KHz
Compression mode : Lossy
Stream size : 44.6 MiB (8%)
Alignment : Aligned on interleaves
Interleave, duration : 40 ms (1.00 video frame)
Interleave, preload duration : 504 ms

Audio #2
ID : 2
Format : MPEG Audio
Format version : Version 1
Format profile : Layer 3
Mode : Joint stereo
Mode extension : MS Stereo
Codec ID : 55
Codec ID/Hint : MP3
Duration : 48mn 46s
Bit rate mode : Constant
Bit rate : 128 Kbps
Channel(s) : 2 channels
Sampling rate : 48.0 KHz
Compression mode : Lossy
Stream size : 44.6 MiB (8%)
Alignment : Aligned on interleaves
Interleave, duration : 40 ms (1.00 video frame)
Interleave, preload duration : 504 ms
Скриншоты:


Все раздачи "Shameless" на Torrents43.com

Смотреть Online

http://moonwalk.cc/serial/f91e6b10a3773ea702942eb3ef20ba0a/iframe
Детали торрента:
Название:Бесстыдники / Shameless (UK) [S1xE1-7] (2004) DVDRip (AlexFilm)
Дата добавления:21 Фев 2013 14:17:30
Размер:3,95 GB
Раздают:2
Качают:0
Форум:Зарубежные сериалы

All rights reserved © 2015-2018