TORRENTS43.COM

Скачать Будущее / The Future (2011) DVD5


Будущее / The Future (2011) DVD5
Русское название: Будущее
Оригинальное название: The Future
Год выпуска: 2011
Производство: Германия, США
Жанр: Драма, Комедия

Перевод: Многоголосый закадровый (Лицензия)
Субтитры: Отсутствуют

Режиссер: Миранда Джулай
Актеры: Хамиш Линклэйтер, Миранда Джулай, Дэвид Уоршофски, Изабелла Акрес, Джо Паттерлик, Анджела Тримбур, Мэри Пассери, Элла, Кэтлин Гати, Клемент Сейнт-Джордж

Описание фильма:
Когда пара решает взять бездомного кота, их жизненная перспектива меняется, буквально искажая пространство и время и проверяя их веру в себя и друг друга на прочность.


Дата мировой премьеры: 21 января 2011
Дата российской премьеры: 10 ноября 2011, «P&I Films»
Дата выхода DVD релиза: 18 февраля 2013, «Новый Диск»

Продолжительность: 01:26:54
Качество видео: DVD5
Видеокодек: MPEG-2
Битрейт видео: ~5424 kbps
Размер кадра: PAL 16:9 (720x576@1024х576)
Аудио: AC3, 2 ch, 192 kbps (Многоголосый, Русский)

Доп. материалы: Отсутствуют

MediaInfo:

Общее
Полное имя : Budushhee.2011.P.DVD5\VIDEO_TS\VTS_04_2.VOB
Формат : MPEG-PS
Размер файла : 1024 Мбайт
Продолжительность : 24 м.
Режим общего битрейта : Переменный
Общий поток : 5730 Кбит/сек

Видео
Идентификатор : 224 (0xE0)
Формат : MPEG Video
Версия формата : Version 2
Профиль формата : Main@Main
Параметр BVOP формата : Да
Параметр матрицы формата : По умолчанию
Параметр GOP формата : M=3, N=12
Продолжительность : 24 м.
Вид битрейта : Переменный
Битрейт : 5424 Кбит/сек
Максимальный битрейт : 6000 Кбит/сек
Ширина : 720 пикселей
Высота : 576 пикселей
Соотношение сторон : 16:9
Частота кадров : 25,000 кадров/сек
Стандарт вещания : PAL
Цветовое пространство : YUV
Субдискретизация насыщенности : 4:2:0
Битовая глубина : 8 бит
Тип развёртки : Чересстрочная
Порядок развёртки : Нижнее поле первое
Метод сжатия : С потерями
Бит/(Пиксели*Кадры) : 0.523
Размер потока : 969 Мбайт (95%)

Аудио
Идентификатор : 189 (0xBD)-128 (0x80)
Формат : AC-3
Формат/Информация : Audio Coding 3
Расширение режима : CM (complete main)
Режим смешивания : DVD-Video
Продолжительность : 24 м.
Вид битрейта : Постоянный
Битрейт : 192 Кбит/сек
Каналы : 2 канала
Расположение каналов : Front: L R
Частота : 48,0 КГц
Битовая глубина : 16 бит
Метод сжатия : С потерями
Задержка видео : -640 мс.
Размер потока : 34,3 Мбайт (3%)

Меню

DVDInfo:

Title: Budushhee.2011.P.DVD5
Size: 3.43 Gb ( 3 598 868,00 KBytes ) - DVD-5
Enabled regions: 1, 2, 3, 4, 5, 6, 7, 8

VTS_01 :
Play Length: 00:00:15
Video: PAL 4:3 (720x576) VBR
Audio:
Not specified (Dolby AC3, 2 ch)

VTS_02 :
Play Length: 00:00:08
Video: PAL 16:9 (720x576) VBR, Auto Letterboxed
Audio:
Not specified (Dolby AC3, 2 ch)

VTS_03 :
Play Length: 00:00:01
Video: PAL 16:9 (720x576) VBR, Auto Letterboxed
Audio:
Russian (Dolby AC3, 2 ch)

VTS_04 :
Play Length: 01:26:54
Video: PAL 16:9 (720x576) VBR, Auto Letterboxed
Audio:
Russian (Dolby AC3, 2 ch)

VTS_05 :
Play Length: 00:00:01
Video: PAL 16:9 (720x576) VBR, Auto Letterboxed
Audio:
Russian (Dolby AC3, 2 ch)

* Menus Information *

VIDEO_TS Menu
Video:
PAL 16:9 (720x576) VBR
Auto Pan&Scan
English Language Unit :
Title Menu

VTS_01 Menu
Video:
PAL 16:9 (720x576) VBR
Auto Letterboxed
Audio:
Not specified (Dolby AC3, 2 ch)
English Language Unit :
Root Menu
Chapter (PTT) Menu

VTS_02 Menu
Video:
PAL 4:3 (720x576) VBR
Auto Pan&Scan, Auto Letterboxed
English Language Unit :
Root Menu
Chapter (PTT) Menu

VTS_03 Menu
Video:
PAL 4:3 (720x576) VBR
Auto Pan&Scan, Auto Letterboxed
English Language Unit :
Root Menu
Chapter (PTT) Menu

VTS_04 Menu
Video:
PAL 4:3 (720x576) VBR
Auto Pan&Scan, Auto Letterboxed
English Language Unit :
Root Menu
Chapter (PTT) Menu

VTS_05 Menu
Video:
PAL 4:3 (720x576) VBR
Auto Pan&Scan, Auto Letterboxed
English Language Unit :
Root Menu
Chapter (PTT) Menu

Меню DVD:

Скриншоты:




Смотреть Online

http://moonwalk.cc/video/422e72915ada6389/iframe
Детали торрента:
Название:Будущее / The Future (2011) DVD5
Дата добавления:28 Фев 2013 10:27:30
Размер:3,43 GB
Раздают:
Качают:0
Форум:Зарубежные Фильмы (DVD)

All rights reserved © 2015-2018