TORRENTS43.COM

Скачать Белый Бим Черное Ухо (1977) DVDRip


Белый Бим Черное ухо (1976) DVDRip
Год выпуска: 1976
Производство: СССР, киностудия им. М. Горького
Жанр: Драма
Субтитры: Отсутствуют

Описание фильма:
Трогательная лирическая киноповесть о судьбе собаки, теряющей любимого хозяина, об отношении людей к «братьям меньшим», которое как рентгеном просвечивает души, выявляя в одних низость и мелочную подлость, а в других — благородство, способность сострадать и любить…

Режиссер: Станислав Ростоцкий
Актеры: Вячеслав Тихонов, Геннадий Кочкожаров, Василий Воробьев, Андрей Мартынов, Ирина Шевчук, Любовь Соколова, Валентина Владимирова, Иван Рыжов, Раиса Рязанова, Алексей Миронов, Георгий Светлани, Мария Скворцова, Родион Александров, Светлана Харитонова, Анатолий Баранцев, Виталий Леонов, Михаил Зимин

Продолжительность: 02:52:27
Качество видео: DVDRip



Видеокодек: XviD
Битрейт видео: 948 Kbps
Размер кадра: 480x240
Аудиокодек: MP3, 2 channels
Битрейт аудио: 128 Kbps

MediaInfo:

Белый Бим Черное Ухо\Белый Бим Черное ухо(1).avi
Format : AVI
Format/Info : Audio Video Interleave
File size : 700 MiB
Duration : 1h 30mn
Overall bit rate mode : Variable
Overall bit rate : 1 087 Kbps
Writing application : VirtualDubMod 1.5.4.1 (build 2178/release)
Writing library : VirtualDubMod build 2178/release

Video
ID : 0
Format : MPEG-4 Visual
Format profile : Advanced Simple@L5
Format settings, BVOP : 1
Format settings, QPel : No
Format settings, GMC : No warppoints
Format settings, Matrix : Custom
Codec ID : XVID
Codec ID/Hint : XviD
Duration : 1h 30mn
Bit rate : 948 Kbps
Width : 480 pixels
Height : 240 pixels
Display aspect ratio : 2.000
Frame rate : 25.000 fps
Color space : YUV
Chroma subsampling : 4:2:0
Bit depth : 8 bits
Scan type : Progressive
Compression mode : Lossy
Bits/(Pixel*Frame) : 0.329
Stream size : 610 MiB (87%)
Writing library : XviD 1.0.3 (UTC 2004-12-20)

Audio
ID : 1
Format : MPEG Audio
Format version : Version 1
Format profile : Layer 3
Mode : Joint stereo
Mode extension : MS Stereo
Codec ID : 55
Codec ID/Hint : MP3
Duration : 1h 29mn
Bit rate mode : Variable
Bit rate : 128 Kbps
Channel(s) : 2 channels
Sampling rate : 48.0 KHz
Compression mode : Lossy
Delay relative to video : 288ms
Stream size : 81.6 MiB (12%)
Alignment : Split accross interleaves
Interleave, duration : 24 ms (0.60 video frame)
Interleave, preload duration : 945 ms
Writing library : LAME3.96r
Encoding settings : -m j -V 4 -q 2 -lowpass 17.5 --abr 128
Language : Russian
===============================================================================
Белый Бим Черное Ухо\Белый Бим Черное ухо(2).avi
Format : AVI
Format/Info : Audio Video Interleave
File size : 700 MiB
Duration : 1h 22mn
Overall bit rate mode : Variable
Overall bit rate : 1 187 Kbps
Writing application : VirtualDubMod 1.5.4.1 (build 2178/release)
Writing library : VirtualDubMod build 2178/release

Video
ID : 0
Format : MPEG-4 Visual
Format profile : Advanced Simple@L5
Format settings, BVOP : 1
Format settings, QPel : No
Format settings, GMC : No warppoints
Format settings, Matrix : Custom
Codec ID : XVID
Codec ID/Hint : XviD
Duration : 1h 22mn
Bit rate : 1 046 Kbps
Width : 608 pixels
Height : 304 pixels
Display aspect ratio : 2.000
Frame rate : 25.000 fps
Color space : YUV
Chroma subsampling : 4:2:0
Bit depth : 8 bits
Scan type : Progressive
Compression mode : Lossy
Bits/(Pixel*Frame) : 0.226
Stream size : 617 MiB (88%)
Writing library : XviD 1.0.3 (UTC 2004-12-20)

Audio
ID : 1
Format : MPEG Audio
Format version : Version 1
Format profile : Layer 3
Mode : Joint stereo
Mode extension : MS Stereo
Codec ID : 55
Codec ID/Hint : MP3
Duration : 1h 22mn
Bit rate mode : Variable
Bit rate : 128 Kbps
Channel(s) : 2 channels
Sampling rate : 48.0 KHz
Compression mode : Lossy
Delay relative to video : 384ms
Stream size : 75.5 MiB (11%)
Alignment : Split accross interleaves
Interleave, duration : 24 ms (0.60 video frame)
Interleave, preload duration : 1199 ms
Writing library : LAME3.96r
Encoding settings : -m j -V 4 -q 2 -lowpass 17.5 --abr 128
Language : Russian
Скриншоты:


Реставрация релиза: smaster67

Смотреть Online

http://moonwalk.cc/serial/e198f6e1236b82ef6204f0a0b56538e3/iframe
Детали торрента:
Название:Белый Бим Черное Ухо (1977) DVDRip
Дата добавления:04 Апр 2007 03:15:26
Размер:1,37 GB
Раздают:
Качают:0
Форум:Отечественная Классика (HD*Rip/LQ, DVDRip, SATRip, VHSRip)

All rights reserved © 2015-2018