TORRENTS43.COM

Скачать Крестный отец: Трилогия / The Godfather: Trilogy (1972-1990) BDRip [H.264/720p-LQ] [UKR, ENG]


Крестный отец / The Godfather (1972) BDRip "Настоящая сила не может быть дана, она может быть взята..."
Русское название: Крестный отец
Оригинальное название: The Godfather
Жанр: драма, триллер
Год выпуска: 1972
Кинокомпания: Paramount Pictures
Страна: США
Перевод: Многоголосый закадровый (украинский)
Описание фильма:
Криминальная сага, повествующая о нью-йоркской сицилийской мафиозной семье Корлеоне. Фильм охватывает период 1945-1955 годов.

Глава семьи, Дон Вито Корлеоне, выдаёт замуж свою дочь. В это время со Второй мировой войны возвращается его любимый сын Майкл. Майкл, герой войны, гордость семьи, не выражает желания заняться жестоким семейным бизнесом. Дон Корлеоне ведёт дела по старым правилам, но наступают иные времена, и появляются люди, желающие изменить сложившиеся порядки. На Дона Корлеоне совершается покушение.
Режиссер: Френсис Форд Коппола
Продюсер: Грэй Фредериксон, Альберт С. Радди
Актеры: Аль Пачино, Марлон Брандо, Джеймс Каан, Ричард С. Кастеллано, Роберт Дюваль, Стерлинг Хейден, Джон Марли, Ричард Конте, Аль Леттьери, Дайан Китон

Продолжительность: 02:57:09
Качество видео: BDRip
Видео: AVC, 1280x720 (16:9), 23.976 fps, 1 358 Kbps (0.061 bit/pixel)
Аудио #1: AC-3, 48.0 KHz, 6 ch, 448 Kbps, CBR (Ukrainian)
Аудио #2: AC-3, 48.0 KHz, 6 ch, 448 Kbps, CBR (English)

MediaInfo

E:\Ô³ëüìè\The Godfather. Trilogy (1972,1974,1990) BDRip 720p-mini [Ukr,Eng]\The Godfather (1972) BDRip 720p-mini [Ukr,Eng].mkv
General
Unique ID : 246322058119271067813318038189730586402 (0xB94FE71BE6E5203D890A68440F5A5F22)
Complete name : E:\Ô³ëüìè\The Godfather. Trilogy (1972,1974,1990) BDRip 720p-mini [Ukr,Eng]\The Godfather (1972) BDRip 720p-mini [Ukr,Eng].mkv
Format : Matroska
Format version : Version 2
File size : 2.79 GiB
Duration : 2h 57mn
Overall bit rate : 2 254 Kbps
Encoded date : UTC 2011-03-08 17:27:24
Writing application : mkvmerge v4.5.0 ('Speed of Light') ç³áðàíî Feb 1 2011 02:10:32
Writing library : libebml v1.2.0 + libmatroska v1.1.0
Video #1
ID : 1
Format : AVC
Format/Info : Advanced Video Codec
Format profile : High@L4.1
Format settings, CABAC : Yes
Format settings, ReFrames : 4 frames
Codec ID : V_MPEG4/ISO/AVC
Duration : 2h 57mn
Bit rate : 1 358 Kbps
Width : 1 280 pixels
Height : 720 pixels
Display aspect ratio : 16:9
Frame rate mode : Constant
Frame rate : 23.976 fps
Color space : YUV
Chroma subsampling : 4:2:0
Bit depth : 8 bits
Scan type : Progressive
Bits/(Pixel*Frame) : 0.061
Stream size : 1.63 GiB (58%)
Writing library : x264 core 68 r1183M f21daff
Encoding settings : cabac=1 / ref=4 / deblock=1:-1:-1 / analyse=0x3:0x113 / me=umh / subme=7 / psy_rd=1.0:0.0 / mixed_ref=1 / me_range=16 / chroma_me=1 / trellis=2 / 8x8dct=1 / cqm=0 / deadzone=21,11 / chroma_qp_offset=-2 / threads=3 / nr=0 / decimate=1 / mbaff=0 / bframes=3 / b_pyramid=0 / b_adapt=2 / b_bias=0 / direct=3 / wpredb=1 / keyint=250 / keyint_min=25 / scenecut=40 / rc=2pass / bitrate=1358 / ratetol=1.0 / qcomp=0.60 / qpmin=10 / qpmax=51 / qpstep=4 / cplxblur=20.0 / qblur=0.5 / vbv_maxrate=50000 / vbv_bufsize=50000 / ip_ratio=1.40 / pb_ratio=1.30 / aq=1:1.00
Language : English
Default : Yes
Forced : No
Audio #2
ID : 2
Format : AC-3
Format/Info : Audio Coding 3
Mode extension : CM (complete main)
Format settings, Endianness : Big
Codec ID : A_AC3
Duration : 2h 57mn
Bit rate mode : Constant
Bit rate : 448 Kbps
Channel(s) : 6 channels
Channel positions : Front: L C R, Side: L R, LFE
Sampling rate : 48.0 KHz
Bit depth : 16 bits
Compression mode : Lossy
Stream size : 568 MiB (20%)
Language : Ukrainian
Default : Yes
Forced : No
Audio #3
ID : 3
Format : AC-3
Format/Info : Audio Coding 3
Mode extension : CM (complete main)
Format settings, Endianness : Big
Codec ID : A_AC3
Duration : 2h 57mn
Bit rate mode : Constant
Bit rate : 448 Kbps
Channel(s) : 6 channels
Channel positions : Front: L C R, Side: L R, LFE
Sampling rate : 48.0 KHz
Bit depth : 16 bits
Compression mode : Lossy
Stream size : 568 MiB (20%)
Language : English
Default : No
Forced : No

Рецензия, отзыв о фильме

Сегодня речь пойдёт о культовом фильме, который собрал целое множество различных наград. О фильме «Крёстный отец». Режиссёром которого является Френсис Форд Каппола. Действия разворачиваются в Нью-йорке сороковых-пятидесятых годов. В центре внимания оказывается одна из пяти мафиозных семей. Во главе которой стоит Дон Вито Карлеоне, согласитесь звучное имя.

Дон Вито ведёт свои дела, так называемый бизнес по старым сложившимся порядкам и обычаям. Но появляются те, которые хотят эти порядки изменить. На главу «семьи» совершается покушение.

События в фильме по большей части происходят плавно, монотонно, чего не скажешь о новых голливудский картинах. Хотелось бы поделиться своим личным восприятием ленты. Говорить о том, что фильм проходит на одном дыхании не приходится, так как я уже упомянул о свойственной ему монотонности. Которая в свою очередь ни как не влияет на саму картину. Посмотрев её можно лично убедиться что это шедевр. Великолепная игра, точность действий, лаконичность фраз предоставляют возможность убедиться, что перед нами не просто фильм, а произведение искусства.

Не лишнем будет сказать и о том как проходила работа по созданию ленты. И поведать читателю несколько интересных и порой даже пугающих фактов. Начнём с того что киностудия Paramount Pictures выпустила фильм на экраны в 1972 году. Жанр был определён как драма, криминал. Бюджет составил 6000000 долларов, хотя изначально создатели не планировали столь крупного вложения средств. Авторами сценария являются Френсис Форд Каппола и Марио Пьюзо. Последний написал роман «Крёстный отец», и является автором самой идеи. Актёрский состав очень разнообразен, самые ведущие актёры это конечно Марлон Брандо (Дон Карлеоне), Аль Пачино (младший сын Дона Майкл), Джон Казале (Фредо, средний сын), Джеймс Каан (Санни, старший сын), Роберт Дюваль (Том, консильери, приёмный сын Дона, юрист).

Случились и интересные случаи к примеру такой. На прослушивании Марлон Брандо набил щёки ватой, чтобы челюсть выглядела по бульдожьи. И только потом ему была изготовлена специальная каппа. А уже во время самих съёмок Брандо не мог запомнить текст своего персонажа и читал его с карточек, которые были расположены везде, куда не мог дотянуться глаз кинокамеры. В одной из сцен по сценарию происходила драка, актёры которые должны были принять в этой драке непосредственное участие недолюбливали друг друга. И поэтому после окончания съёмок у одного из них было сломано пара рёбер и разбит локоть.

Сама картина в свою очередь совершила небольшую революцию в киноиндустрии. Спасла от банкротства Paramount Pictures, выпустила в свет новое поколение звёзд и сделала своих автором богатыми и знаменитыми. Но стала поводом для войны между голливудскими акулами бизнеса и высшими чинами мафии. Экранизация романа была поперёк горла уже настоящим мафиози. Был организован марафон против начала работы на фильмом, который собрал 500000 долларов. Отправлялись даже письма с угрозами.

Как ранее уже уточнялось, что фильм собрал целое множество наград то давайте внесём ясность каких именно, а это:

Три «оскара» в номинациях лучший фильм, лучший актёр (Марлон Брандо), лучший адаптированный сценарий.

Пять «золотых глобусов» в номинациях лучший актёр (опять же таки Марлон Брандо), лучший режиссёр (как ранее несколько раз упоминалось Френсис Форд Коппола).

«BAFTA» — лучшая музыка

«David di Donatello Awards» — лучший актёр (Аль пачино), лучший иностранный фильм.

Гильдия режиссёров Америки — лучший режиссёр.

Гильдия сценаристов Америки — лучшая адаптация сценария.

«NEW YORK Film Critics Circle Awards» — лучший актёр второго плана (Роберт Дюваль).

«Kansas City film Critics Circle Awards» в номинации лучший актёр (Марлон Брандо).

Всё таки фильм предназначен далеко не для всех возрастов. Лицам лет 14 его не стоит смотреть как минимум из-за сцен насилия. Расчёт делался исключительно на взрослого зрителя, оно и понятно тема мафии не является детской. А вообще фильм придётся по вкусу не только любителям мафиозной темы, коем являюсь я сам, но и людям любящим просто хорошее кино.

Так что если вы не знакомы с «Крёстным отцом», то советую вам как можно скорее это знакомство совершить. Уверяю вас что разочарованными вы не останетесь.

Скриншоты:




Крестный отец 2 / The Godfather 2 (1974) BDRip "Сага продолжается"
Русское название: Крестный отец 2
Оригинальное название: The Godfather 2
Жанр: драма, триллер, криминал
Год выпуска: 1974
Кинокомпания: Paramount Pictures, The Coppola Company
Страна: США
Перевод: Многоголосый закадровый (украинский)
Описание фильма:
В центре драмы представители нового поколения гангстерского клана — дона Корлеоне и его сына, для которых не существует моральных преград на пути достижения поставленых целей. Они превращают мафию, построенную по патриархальным, еще сицилийским законам, в весьма прагматичную, жесткую корпорацию, плавно интегрирующуюся в большой бизнес Америки.
Режиссер: Френсис Форд Коппола
Продюсер:Френсис Форд Коппола, Грэй
Актеры: Аль Пачино, Роберт Де Ниро, Роберт Дюваль, Дайан Китон, Джон Казале, Талия Шайр, Ли Страсберг, Майкл В. Гаццо, Г.Д. Спрэдлин, Ричард Брайт

Продолжительность: 03:22:06
Качество видео: BDRip
Видео: AVC, 1280x720 (16:9), 23.976 fps, 1 158 Kbps (0.052 bit/pixel)
Аудио #1: AC-3, 48.0 KHz, 6 ch, 448 Kbps, CBR (Ukrainian)
Аудио #2: AC-3, 48.0 KHz, 6 ch, 448 Kbps, CBR (English)

MediaInfo

E:\Ô³ëüìè\The Godfather. Trilogy (1972,1974,1990) BDRip 720p-mini [Ukr,Eng]\The Godfather II (1974) BDRip 720p-mini [Ukr,Eng].mkv
General
Unique ID : 226366192341976894158610941238495994438 (0xAA4C8AF66FECEDFB99853AE565A8E246)
Complete name : E:\Ô³ëüìè\The Godfather. Trilogy (1972,1974,1990) BDRip 720p-mini [Ukr,Eng]\The Godfather II (1974) BDRip 720p-mini [Ukr,Eng].mkv
Format : Matroska
Format version : Version 2
File size : 2.90 GiB
Duration : 3h 22mn
Overall bit rate : 2 055 Kbps
Encoded date : UTC 2011-03-08 19:11:39
Writing application : mkvmerge v4.5.0 ('Speed of Light') ç³áðàíî Feb 1 2011 02:10:32
Writing library : libebml v1.2.0 + libmatroska v1.1.0
Video #1
ID : 1
Format : AVC
Format/Info : Advanced Video Codec
Format profile : High@L5.1
Format settings, CABAC : Yes
Format settings, ReFrames : 4 frames
Codec ID : V_MPEG4/ISO/AVC
Duration : 3h 22mn
Bit rate : 1 158 Kbps
Width : 1 280 pixels
Height : 720 pixels
Display aspect ratio : 16:9
Frame rate mode : Constant
Frame rate : 23.976 fps
Color space : YUV
Chroma subsampling : 4:2:0
Bit depth : 8 bits
Scan type : Progressive
Bits/(Pixel*Frame) : 0.052
Stream size : 1.58 GiB (54%)
Writing library : x264 core 68 r1183M f21daff
Encoding settings : cabac=1 / ref=4 / deblock=1:-1:-1 / analyse=0x3:0x113 / me=umh / subme=8 / psy_rd=1.0:0.0 / mixed_ref=1 / me_range=16 / chroma_me=1 / trellis=2 / 8x8dct=1 / cqm=0 / deadzone=21,11 / chroma_qp_offset=-2 / threads=1 / nr=0 / decimate=1 / mbaff=0 / bframes=3 / b_pyramid=0 / b_adapt=2 / b_bias=0 / direct=3 / wpredb=1 / keyint=250 / keyint_min=25 / scenecut=40 / rc=2pass / bitrate=1158 / ratetol=1.0 / qcomp=0.60 / qpmin=10 / qpmax=51 / qpstep=4 / cplxblur=20.0 / qblur=0.5 / vbv_maxrate=50000 / vbv_bufsize=50000 / ip_ratio=1.40 / pb_ratio=1.30 / aq=1:1.00
Language : English
Default : Yes
Forced : No
Audio #2
ID : 2
Format : AC-3
Format/Info : Audio Coding 3
Mode extension : CM (complete main)
Format settings, Endianness : Big
Codec ID : A_AC3
Duration : 3h 22mn
Bit rate mode : Constant
Bit rate : 448 Kbps
Channel(s) : 6 channels
Channel positions : Front: L C R, Side: L R, LFE
Sampling rate : 48.0 KHz
Bit depth : 16 bits
Compression mode : Lossy
Stream size : 648 MiB (22%)
Language : Ukrainian
Default : Yes
Forced : No
Audio #3
ID : 3
Format : AC-3
Format/Info : Audio Coding 3
Mode extension : CM (complete main)
Format settings, Endianness : Big
Codec ID : A_AC3
Duration : 3h 22mn
Bit rate mode : Constant
Bit rate : 448 Kbps
Channel(s) : 6 channels
Channel positions : Front: L C R, Side: L R, LFE
Sampling rate : 48.0 KHz
Bit depth : 16 bits
Compression mode : Lossy
Stream size : 648 MiB (22%)
Language : English
Default : No
Forced : No

Скриншоты:




Крестный отец 3 / The Godfather 3 (1990) BDRip «Настоящую власть никто не дает. Её нужно взять.»
Русское название: Крестный отец 3
Оригинальное название: The Godfather 3
Жанр: боевик, драма, криминал, триллер
Год выпуска: 1990
Кинокомпания: Paramount Pictures, Zoetrope Studios
Страна: США
Перевод: Многоголосый закадровый (украинский)
Описание фильма:
Заключительная часть знаменитой гангстерской эпопеи, в которой продолжается рассказ о делах «семьи» дона Корлеоне. Через двадцать лет после событий, описанных в предыдущей картине, Майкл Корлеоне решает заняться легальным бизнесом. Однако противодействие внутри клана заставляет его вспомнить об испытанных кровавых методах общения с противником, что приводит к трагическому итогу.
Режиссер: Френсис Форд Коппола
Продюсер:Френсис Форд Коппола, Грэй Фредериксон, Фред Фучс
Актеры: Аль Пачино, Дайан Китон, София Коппола, Бриджит Фонда, Энди Гарсиа, Талия Шайр, Эли Уоллах, Джо Мантенья, Джордж Хэмилтон, Раф Валлоне

Продолжительность: 02:50:15
Качество видео: BDRip
Видео: AVC, 1280x720 (16:9), 23.976 fps, 1 375 Kbps (0.062 bit/pixel)
Аудио #1: AC-3, 48.0 KHz, 6 ch, 448 Kbps, CBR (Ukrainian)
Аудио #2: AC-3, 48.0 KHz, 6 ch, 448 Kbps, CBR (English)

MediaInfo

E:\Ô³ëüìè\The Godfather. Trilogy (1972,1974,1990) BDRip 720p-mini [Ukr,Eng]\The Godfather III (1990) BDRip 720p-mini [Ukr,Eng].mkv
General
Unique ID : 218119708140614307907064107925544359469 (0xA41853E690C8F5D6B094D8FBA087D62D)
Complete name : E:\Ô³ëüìè\The Godfather. Trilogy (1972,1974,1990) BDRip 720p-mini [Ukr,Eng]\The Godfather III (1990) BDRip 720p-mini [Ukr,Eng].mkv
Format : Matroska
Format version : Version 2
File size : 2.70 GiB
Duration : 2h 50mn
Overall bit rate : 2 273 Kbps
Encoded date : UTC 2011-03-09 14:28:20
Writing application : mkvmerge v4.5.0 ('Speed of Light') ç³áðàíî Feb 1 2011 02:10:32
Writing library : libebml v1.2.0 + libmatroska v1.1.0
Video #1
ID : 1
Format : AVC
Format/Info : Advanced Video Codec
Format profile : High@L4.1
Format settings, CABAC : Yes
Format settings, ReFrames : 4 frames
Codec ID : V_MPEG4/ISO/AVC
Duration : 2h 50mn
Bit rate : 1 375 Kbps
Width : 1 280 pixels
Height : 720 pixels
Display aspect ratio : 16:9
Frame rate mode : Constant
Frame rate : 23.976 fps
Color space : YUV
Chroma subsampling : 4:2:0
Bit depth : 8 bits
Scan type : Progressive
Bits/(Pixel*Frame) : 0.062
Stream size : 1.58 GiB (59%)
Writing library : x264 core 68 r1183M f21daff
Encoding settings : cabac=1 / ref=4 / deblock=1:-1:-1 / analyse=0x3:0x113 / me=umh / subme=7 / psy_rd=1.0:0.0 / mixed_ref=1 / me_range=16 / chroma_me=1 / trellis=2 / 8x8dct=1 / cqm=0 / deadzone=21,11 / chroma_qp_offset=-2 / threads=3 / nr=0 / decimate=1 / mbaff=0 / bframes=3 / b_pyramid=0 / b_adapt=2 / b_bias=0 / direct=3 / wpredb=1 / keyint=250 / keyint_min=25 / scenecut=40 / rc=2pass / bitrate=1375 / ratetol=1.0 / qcomp=0.60 / qpmin=10 / qpmax=51 / qpstep=4 / cplxblur=20.0 / qblur=0.5 / vbv_maxrate=50000 / vbv_bufsize=50000 / ip_ratio=1.40 / pb_ratio=1.30 / aq=1:1.00
Language : English
Default : Yes
Forced : No
Audio #2
ID : 2
Format : AC-3
Format/Info : Audio Coding 3
Mode extension : CM (complete main)
Format settings, Endianness : Big
Codec ID : A_AC3
Duration : 2h 50mn
Bit rate mode : Constant
Bit rate : 448 Kbps
Channel(s) : 6 channels
Channel positions : Front: L C R, Side: L R, LFE
Sampling rate : 48.0 KHz
Bit depth : 16 bits
Compression mode : Lossy
Stream size : 546 MiB (20%)
Language : Ukrainian
Default : Yes
Forced : No
Audio #3
ID : 3
Format : AC-3
Format/Info : Audio Coding 3
Mode extension : CM (complete main)
Format settings, Endianness : Big
Codec ID : A_AC3
Duration : 2h 50mn
Bit rate mode : Constant
Bit rate : 448 Kbps
Channel(s) : 6 channels
Channel positions : Front: L C R, Side: L R, LFE
Sampling rate : 48.0 KHz
Bit depth : 16 bits
Compression mode : Lossy
Stream size : 546 MiB (20%)
Language : English
Default : No
Forced : No

Скриншоты:





Детали торрента:
Название:Крестный отец: Трилогия / The Godfather: Trilogy (1972-1990) BDRip [H.264/720p-LQ] [UKR, ENG]
Дата добавления:23 Апр 2013 22:41:11
Размер:8,39 GB
Раздают:1
Качают:0
Форум:Фильмы с переводом на др. языках

All rights reserved © 2015-2018