TORRENTS43.COM

Скачать Касл / Castle (2009) WEB-DL [720p] [Сезон 1, 10 серий из 10] (FOX Crime, ТВ3 Россия, NovaFilm)


Касл / Castle (2009) WEB-DLRip [720p] [Season 1, 10 из 10] (FOX Crime, ТВ3 Россия, NovaFilm)
Русское название: Касл
Оригинальное название: Castle
Год выпуска: 2009
Жанр: Детектив, Драма, Комедия

Перевод: профессиональный многоголосый закадровый (FOX Crime)
полное дублирование (ТВ3 Россия)
профессиональный многоголосый закадровый (NovaFilm)
Озвучка / Автор перевода: FOX Crime / ТВ3 Россия / NovaFilm
Вид субтитров: Вшитые отключаемые
Язык субтитров: Английские


Дата мировой премьеры: 9 марта 2009
Дата российской премьеры: 20 сентября 2010

Режиссер: Эндрю У. Марлоу
Актеры: Натан Филлион, Молли С. Куинн, Стана Катич, Симус Девер, Сьюзэн Салливан, Джон Уэртас, Рубен Сантьяго-Хадсон, Тамала Джонс, Ари Гросс, Стефен Дж. Кэннел

Описание фильма:
Знакомьтесь, Ричард Касл - успешный писатель детективного жанра, который в последней книге убил своего главного героя. Но кажется, что одному из почитателей его таланта книги понравились слегка чересчур - в городе появляется подражатель, совершающий преступления, с убийственной точностью копируя способы, которыми Касл убивал в своих произведениях. И вот наш изнывающий от скуки писатель был вызван в отдел убийств Нью-йоркской полиции, чтобы помочь найти убийцу.10
Продолжительность: 10 х ~ 00:43:00
Качество видео: WEB-DLRip 720р
Сэмпл: Скачать

Видеокодек: MPEG-4 AVC/H.264
Битрейт видео: ~4 115 Kbps
Размер кадра: 1280 x 720, 23.976 fps, 0.186 Bits/(Pixel*Frame)
Аудиокодек:
AC3, 192 Kbps, 2 channels, 48.0 KHz (ТВ3 Россия)
AC3, 384 Kbps, 6 channels, 48.0 KHz (Original)
AC3, 384 Kbps, 6 channels, 48.0 KHz (NovaFilm)
MP3, 160 Kbps, 2 channels, 48.0 KHz (FOX Crime)
Битрейт аудио: 160/192/384 Kbps

MediaInfo

General
Unique ID : 245904918515979506201408215066762403982 (0xB8FF9089E6AA48F8BD7CB8801F19E08E)
Complete name : H:\!series\Castle.s01.WEB-DL.720p\Castle.s01e01.rus.eng.WEB-DL.720p.mkv
Format : Matroska
Format version : Version 2
File size : 1.61 GiB
Duration : 43mn 13s
Overall bit rate : 5 341 Kbps
Movie name : Castle [Season 1] (2009)
Encoded date : UTC 2011-08-24 05:04:49
Writing application : mkvmerge v4.9.1 ('Ich will') сборка от Jul 11 2011 23:53:15
Writing library : libebml v1.2.1 + libmatroska v1.1.1

Video
ID : 1
Format : AVC
Format/Info : Advanced Video Codec
Format profile : High@L3.1
Format settings, CABAC : No
Format settings, ReFrames : 2 frames
Muxing mode : Header stripping
Codec ID : V_MPEG4/ISO/AVC
Duration : 43mn 13s
Bit rate : 4 115 Kbps
Width : 1 280 pixels
Height : 720 pixels
Display aspect ratio : 16:9
Frame rate mode : Constant
Frame rate : 23.976 fps
Color space : YUV
Chroma subsampling : 4:2:0
Bit depth : 8 bits
Scan type : Progressive
Bits/(Pixel*Frame) : 0.186
Stream size : 1.24 GiB (77%)
Language : English
Default : Yes
Forced : No
Color primaries : BT.709
Transfer characteristics : BT.709
Matrix coefficients : BT.709

Audio #1
ID : 2
Format : AC-3
Format/Info : Audio Coding 3
Mode extension : CM (complete main)
Format settings, Endianness : Big
Muxing mode : Header stripping
Codec ID : A_AC3
Duration : 43mn 13s
Bit rate mode : Constant
Bit rate : 192 Kbps
Channel(s) : 2 channels
Channel positions : Front: L R
Sampling rate : 48.0 KHz
Bit depth : 16 bits
Compression mode : Lossy
Stream size : 59.4 MiB (4%)
Title : (ТВ3 Россия)
Language : Russian
Default : No
Forced : No

Audio #2
ID : 3
Format : AC-3
Format/Info : Audio Coding 3
Mode extension : CM (complete main)
Format settings, Endianness : Big
Muxing mode : Header stripping
Codec ID : A_AC3
Duration : 43mn 13s
Bit rate mode : Constant
Bit rate : 384 Kbps
Channel(s) : 6 channels
Channel positions : Front: L C R, Side: L R, LFE
Sampling rate : 48.0 KHz
Bit depth : 16 bits
Compression mode : Lossy
Stream size : 119 MiB (7%)
Language : English
Default : No
Forced : No

Audio #3
ID : 5
Format : AC-3
Format/Info : Audio Coding 3
Mode extension : CM (complete main)
Format settings, Endianness : Big
Muxing mode : Header stripping
Codec ID : A_AC3
Duration : 43mn 13s
Bit rate mode : Constant
Bit rate : 384 Kbps
Channel(s) : 6 channels
Channel positions : Front: L C R, Side: L R, LFE
Sampling rate : 48.0 KHz
Bit depth : 16 bits
Compression mode : Lossy
Stream size : 119 MiB (7%)
Title : (NovaFilm)
Language : Russian
Default : No
Forced : No

Audio #4
ID : 6
Format : MPEG Audio
Format version : Version 1
Format profile : Layer 3
Mode : Joint stereo
Muxing mode : Header stripping
Codec ID : A_MPEG/L3
Codec ID/Hint : MP3
Duration : 43mn 11s
Bit rate mode : Constant
Bit rate : 160 Kbps
Channel(s) : 2 channels
Sampling rate : 48.0 KHz
Compression mode : Lossy
Stream size : 49.4 MiB (3%)
Title : (FOX Crime)
Writing library : LAME3.98r
Encoding settings : -m j -V 4 -q 3 -lowpass 17.5 -b 160
Language : Russian
Default : Yes
Forced : No

Text
ID : 4
Format : UTF-8
Codec ID : S_TEXT/UTF8
Codec ID/Info : UTF-8 Plain Text
Language : English
Default : No
Forced : No
Официальный сайт сериала ... Касл на Torrents43.com

Скриншоты:



Смотреть Online

http://moonwalk.cc/serial/aa8092c6c9c226b1dff07acc0159c1bd/iframe
Детали торрента:
Название:Касл / Castle (2009) WEB-DL [720p] [Сезон 1, 10 серий из 10] (FOX Crime, ТВ3 Россия, NovaFilm)
Дата добавления:30 Апр 2013 20:11:44
Размер:15,6 GB
Раздают:3
Качают:0
Форум:Касл / Castle

All rights reserved © 2015-2018