TORRENTS43.COM

Скачать Александр Высоцкий | Видеокурс Revit Architecture [2011] PCRec


Александр Высоцкий | Видеокурс Revit Architecture [2011] PCRec
Автор (режиссер): Александр Высоцкий
Название: Видеокурс Revit Architecture
Год выпуска: 2011
Жанр: Обучающие видеоуроки
Качество видео: PCRec
Продолжительность: 11:17:01
Видеокодек: AVC
Битрейт видео: ~800 Kbps, 15.000 fps
Размер кадра: 1280х718
Аудиокодек: AAC
Битрейт аудио: 76.0 Kbps,1 ch, 44.1 KHz

Описание:
Представлена серия из 86 видео уроков по проектированию в среде Revit.Рекомендуется также инженерам, желающим получить максимум знаний.

Список уроков:

001 - Интерфейс 1
002 - Интерфейс 2
101 - Сетка 1
102 - Сетка 2
103 - Сетка 3
104 - Сетка 3.5
201 - Уровни
202 - Стены 1
203 - Стены 2
204 - Инструменты редактирования 1
205 - Инструменты редактирования 2
206 - Перекрытия 1
207 - Перекрытия 1.5
301 - Перекрытия 2
302 - Двери и окна 1
303 - Настройка вида
304 - Многоэтажное копирование
305 - Многоэтажное копирование 1.5
306 - Проемы
401 - Резюме
402 - Размеры 1
402 - Размеры 2
403 - Размеры 3
405 - Крыша 1
501 - Крыша 2
502 - Лестницы 1
503 - Лестницы 2
504 - Лестницы 2.5
505 - Навесные стены 1
506 - Навесные стены 2
507 - Навесные стены 3
508 - Варианты
509 - Группы
510 - Помещения 1
601 - Марки 1
602 - Марки 2
603 - Марки 3
604 - Спецификации 1
605 - Спецификации 2
606 - Спецификации 3
607 - Видимость-графика 1
608 - Видимость-графика 2
609 - Легенды
701 - Листы 1
702 - 3D виды 1
703 - 3D виды 2
704 - 3D виды 3
705 - Материалы 1
706 - Материалы 2
707 - Разделение грани
708 - Разрез
709 - Генплан 1
710 - Генплан 2
711 - Объекты
801 - Формообразующие 1
802 - Формообразующие 2
803 - Формообразующие 3
804 - Импорт из AutoCAD 1
805 - Импорт из AutoCAD 2
806 - Семейства 1
807 - Семейства 2
808 - Семейства 3
809 - Семейства 4
810 - Ограждение
811 - Суб-элементы перекрытий
901 - Лестница сложная
902 - Лестница без ограждения
903 - Доступ к редактору семейств
904 - Редактирование стрелки
905 - Создание подписи Ур.з.
906 - Очистка
907 - Шаблон
908 - Связывание с Revit-файлами
909 - Мебель, спецификация
910 - Элементы несущих конструкций
911 - Потолок, светильники
912 - Спецификация на светильники
914 - Расчет материалов
1001 - Отметки уровней
1002 - Узлы
1003 - Панель управления
1003 - Фильтры
1004 - Карнизы, пилястры и пр.
1005 - Колонна слоями
1006 - 2D-3D объекты
1007 - Экспорт в AutoCAD 2 (также в отдельной записи описание настроек экспорта)
Видеопрезентация Revit Architecture (часть 1 из 4)
Видеопрезентация Revit Architecture (часть 2 из 4)
Видеопрезентация Revit Architecture (часть 3 из 4)
Видеопрезентация Revit Architecture (часть 4 из 4)

MediaInfo:

General
Complete name : Видеопрезентация Revit Architecture (часть 1 из 4).mp4
Format : MPEG-4
Format profile : Base Media / Version 2
Codec ID : mp42
File size : 37.3 MiB
Duration : 11mn 51s
Overall bit rate mode : Variable
Overall bit rate : 440 Kbps
Encoded date : UTC 2011-06-23 09:55:53
Tagged date : UTC 2011-06-23 09:55:53
gsst : 0
gstd : 711533
gssd : BBC2B40C7MM1331434440535648
gshh : o-o.preferred.transtelecom-ovb1.v12.lscache7.c.youtube.com

Video
ID : 1
Format : AVC
Format/Info : Advanced Video Codec
Format profile : High@L3.1
Format settings, CABAC : Yes
Format settings, ReFrames : 1 frame
Format settings, GOP : M=1, N=30
Codec ID : avc1
Codec ID/Info : Advanced Video Coding
Duration : 11mn 51s
Bit rate : 330 Kbps
Maximum bit rate : 4 647 Kbps
Width : 1 280 pixels
Height : 720 pixels
Display aspect ratio : 16:9
Frame rate mode : Variable
Frame rate : 15.000 fps
Minimum frame rate : 14.925 fps
Maximum frame rate : 15.152 fps
Color space : YUV
Chroma subsampling : 4:2:0
Bit depth : 8 bits
Scan type : Progressive
Bits/(Pixel*Frame) : 0.024
Stream size : 28.0 MiB (75%)
Tagged date : UTC 2011-06-23 09:55:57

Audio
ID : 2
Format : AAC
Format/Info : Advanced Audio Codec
Format profile : LC
Codec ID : 40
Duration : 11mn 51s
Bit rate mode : Variable
Bit rate : 105 Kbps
Maximum bit rate : 123 Kbps
Channel(s) : 2 channels
Channel positions : Front: L R
Sampling rate : 44.1 KHz
Compression mode : Lossy
Stream size : 8.89 MiB (24%)
Title : IsoMedia File Produced by Google, 5-11-2011
Encoded date : UTC 2011-06-23 09:55:54
Tagged date : UTC 2011-06-23 09:55:57
Скриншоты:


Детали торрента:
Название:Александр Высоцкий | Видеокурс Revit Architecture [2011] PCRec
Дата добавления:02 Май 2013 18:41:53
Размер:4 GB
Раздают:4
Качают:0
Форум:Компьютеры

All rights reserved © 2015-2018