TORRENTS43.COM

Скачать Сказка о трех медвежатах / El Cuento de Los Tres Ositos (2000) DVDRip


Сказка о трех медвежатах / El Cuento de Los Tres Ositos (2000) DVDRip
Русское название: Сказка о трех медвежатах
Оригинальное название: El Cuento de Los Tres Ositos
Год выпуска: 2000
Производство: Испания / Neptuno Films
Жанр: Рисованная анимация, Cемейный
Описание:
Во время летних каникул маленькая Златовласка заблудилась в лесу. На самом деле это — начало замечательного приключения, во время которого девочка знакомится с тремя медвежатами. Они сталкиваются с опасностями и недругами, но это только еще больше сближает друзей.
Режиссер: Жозе Вициана
Продюсер: Кристина Бранднер

Продолжительность: 01:00:33
Перевод: Многоголосый закадровый, профессиональный
Видеокодек: Xvid
Битрейт видео: ~1879 Кбит/с
Размер кадра: 720x528
Качество видео: DVDRip
Аудиокодек: AC3 2.0
Битрейт аудио: 192 Кбит/с

MediaInfo

Общее
Полное имя : D:\Торрент раздача\Skazka.o.treh.medvezhatah.2000.DVDRip.avi
Формат : AVI
Формат/Информация : Audio Video Interleave
Размер файла : 901 Мбайт
Продолжительность : 1 ч. 0 м.
Общий поток : 2081 Кбит/сек
Программа кодирования : VirtualDubMod 1.5.10.3 | www.virtualdub-fr.org || (build 2550/release)
Библиотека кодирования : VirtualDubMod build 2550/release

Видео
Идентификатор : 0
Формат : MPEG-4 Visual
Профиль формата : Advanced Simple@L5
Параметр BVOP формата : 1
Параметр QPel формата : Нет
Параметр GMC формата : Без точки перехода
Параметр матрицы формата : Default (H.263)
Идентификатор кодека : XVID
Идентификатор кодека/Подсказка : XviD
Продолжительность : 1 ч. 0 м.
Битрейт : 1880 Кбит/сек
Ширина : 720 пикселей
Высота : 528 пикселей
Соотношение сторон : 4:3
Частота кадров : 25,000 кадров/сек
Цветовое пространство : YUV
Субдискретизация насыщенности : 4:2:0
Битовая глубина : 8 бит
Тип развёртки : Прогрессивная
Метод сжатия : С потерями
Бит/(Пиксели*Кадры) : 0.198
Размер потока : 814 Мбайт (90%)
Библиотека кодирования : XviD 1.2.1 (UTC 2008-12-04)

Аудио
Идентификатор : 1
Формат : AC-3
Формат/Информация : Audio Coding 3
Расширение режима : CM (complete main)
Параметр Endianness формата : Big
Идентификатор кодека : 2000
Продолжительность : 1 ч. 0 м.
Вид битрейта : Постоянный
Битрейт : 192 Кбит/сек
Каналы : 2 канала
Расположение каналов : Front: L R
Частота : 48,0 КГц
Битовая глубина : 16 бит
Метод сжатия : С потерями
Размер потока : 83,1 Мбайт (9%)
Выравнивание : Разделение по промежуткам
Продолжительность промежутка : 40 мс. (1,00 видеокадр)
Время предзагрузки промежутка : 500 мс.
Скриншоты:

Детали торрента:
Название:Сказка о трех медвежатах / El Cuento de Los Tres Ositos (2000) DVDRip
Дата добавления:05 Май 2013 18:41:15
Размер:901 MB
Раздают:1
Качают:0
Форум:Зарубежные Мультфильмы для детей

All rights reserved © 2015-2018