TORRENTS43.COM

Скачать Master of Mosquiton '99 / Хозяин Москитона '99 [1997, TV, 26] SDTVRip HS rus


Master of Mosquiton '99 / Хозяин Москитона '99

Жанр: приключения, комедия, вампиры, фэнтези
Тип: ТВ-сериал
Продолжительность: ТВ (26 эп.), 23 мин.
Дата премьеры / период выхода: c 30.09.1997 по 31.03.1998
Режиссёр: Нэгиси Хироси / ネギシヒロシ / 根岸ひろし / 根岸弘 / ねぎしひろし
Битрейт видео: 1-8 640 x 480 DivX 3 Low-Motion 23.976 1275kbps 9-25 480 x 360 24,000 Гц
Качество видео: SDTVRip
Вес: 4,4G
Формат: avi
Видео: 1-8 640 x 480 DivX 3 Low-Motion 23.976 1275kbps 9-25 480 x 360 24,000 Гц
Звук: 2 дорожки: русская и японская
Характеристика звука: RU - 48000Hz 128 kb/s Jap - 48000Hz 128 kb/s
Перевод: Любительский одноголосый
Встроенные субтитры: Английские
Подключаемые субтитры: Русские
Описание:
Вампир Алукард фон Москитон, самое могущественное существо в демоническом мире, предал свой мир ради любви к человеческой девушке. Но, убитый бывшими соратниками, он никогда уже не воссоединится с ней. Через сотни лет 17-летняя Имахо воскрешает Москитона, чтобы он он помог утолить её страсть к наживе, приключениям и безумным авантюрам. Когда же она узнаёт об О-береге, дающем возможность отыскать несметные сокровища древних, то уже ничто не может остановить её...

Эпизоды:

01. The high school girl & the vampire
02. Mosquiton & o-part
03. Moonlit sands & the wolf girl
04. Sexy idol & man-made
05. Everywhere is Ai-chan & the anxious Inaho
06. The dangerous duo & the secret within a secret
07. Kiss & the traitorous jungle
08. A spoilt toy & the game that stopped
09. The big ghost-headed girl & the fried noodle stall
10. The learning journey & the Nasuka queen
11. City in the desert & the prince
12. Jealousy & the last day in Tokyo
13. The big explosion & Merry Christmas
14. The man who sleeps & the woman with insomnia
15. The professor & the transfer student
16. Komachi's (Myojo's) counterattack & auction
17. Komachi's (Myojo's) revenge & the Meiji era
18. Chocolate & the taboo holy land
19. Mechanical old man & machine mountain
20. The sales woman & the o-part
21. Man who crossed time & pounding hearts
22. The tragedy of love & the anger
23. Mosquiton of the past & his 2 followers
24. Demon's trap & goodbye Inaho
25. Inaho who lost control & the golden pig
26. The vampire & the high school girl

Mediainfo

Код:
Общее
Полное имя : G:\Трекер Аниме - Разное - Хардсаб\Master of Mosquiton\01-Master of Mosquiton '99 [CX].avi
Формат : AVI
Формат/Информация : Audio Video Interleave
Размер файла : 255 Мбайт
Продолжительность : 21 м.
Общий поток : 1670 Кбит/сек
Программа кодирования : VirtualDubMod 1.5.10.2 (build 2542/release)
Библиотека кодирования : VirtualDubMod build 2542/release

Видео
Идентификатор : 0
Формат : MPEG-4 Visual
Идентификатор кодека : DIV3
Идентификатор кодека/Подсказка : DivX 3 Low
Продолжительность : 21 м.
Битрейт : 1277 Кбит/сек
Ширина : 640 пикселей
Высота : 480 пикселей
Соотношение сторон : 4:3
Частота кадров : 23,976 кадра/сек
Цветовое пространство : YUV
Субдискретизация насыщенности : 4:2:0
Битовая глубина : 8 бит
Метод сжатия : С потерями
Бит/(Пиксели*Кадры) : 0.173
Размер потока : 195 Мбайт (76%)

Аудио #1
Идентификатор : 1
Формат : MPEG Audio
Версия формата : Version 1
Профиль формата : Layer 3
Режим : Joint stereo
Расширение режима : MS Stereo
Идентификатор кодека : 55
Идентификатор кодека/Подсказка : MP3
Продолжительность : 21 м.
Вид битрейта : Постоянный
Битрейт : 128 Кбит/сек
Каналы : 2 канала
Частота : 48,0 КГц
Метод сжатия : С потерями
Размер потока : 19,5 Мбайт (8%)
Выравнивание : Соединение по промежуткам
Продолжительность промежутка : 42 мс. (1,00 видеокадр)
Время предзагрузки промежутка : 504 мс.

Аудио #2
Идентификатор : 2
Формат : MPEG Audio
Версия формата : Version 1
Профиль формата : Layer 3
Режим : Joint stereo
Идентификатор кодека : 55
Идентификатор кодека/Подсказка : MP3
Продолжительность : 21 м.
Вид битрейта : Постоянный
Битрейт : 128 Кбит/сек
Каналы : 2 канала
Частота : 48,0 КГц
Метод сжатия : С потерями
Задержка видео : 24 мс.
Размер потока : 19,5 Мбайт (8%)
Выравнивание : Разделение по промежуткам
Продолжительность промежутка : 42 мс. (1,00 видеокадр)
Время предзагрузки промежутка : 500 мс.
Линки:
world-art
Скриншоты:

Детали торрента:
Название:Master of Mosquiton '99 / Хозяин Москитона '99 [1997, TV, 26] SDTVRip HS rus
Дата добавления:06 Фев 2008 17:40:58
Размер:4,38 GB
Раздают:2
Качают:0
Форум:Аниме хардсаб

All rights reserved © 2015-2018