TORRENTS43.COM

Скачать Дневники нимфоманки / Diario de una ninfomana (2008) HDRip


Дневники нимфоманки / Diario de una ninfomana (2008) HDRip
«Она не способна отказаться от секса»
Русское название: Дневники нимфоманки
Оригинальное название: Diario de una ninfomana
Год выпуска: 2008
Производство: Испания / Canonigo Films, Filmax
Жанр: Драма, Эротика
Описание фильма:
Главная героиня романа – молодая француженка, приехавшая в жаркую Испанию и там пустившаяся во все тяжкие: от бесконечной череды совокуплений в отелях, парках и на кладбищах до работы в борделе.
Режиссер: Кристиан Молина
Продюсер: Мариви Де Вильянуэва, Хулио Фернандес, Фернандо Монья
Актеры: Ллум Баррера, Антонио Гарридо, Хорхе Яман, Леонардо Сбаралья, Белен Фабра, Джералдин Чаплин, Анхела Молина, Педро Гутиеррез, Хосе Чавес, Хаум Гарсия
Продолжительность: 01:41:21
Перевод: Многоголосый закадровый, профессиональный
Язык субтитров: Отсутствуют

Дата мировой премьеры: 17 октября 2008
Дата российской премьеры: 4 февраля 2010, «Премиум Фильм»
Дата выхода DVD релиза: 4 марта 2010, «CP-Digital»
Видеокодек: Xvid
Битрейт видео: ~882 kb/s
Размер кадра: 640x272
Качество видео: HDRip
Аудиокодек: MP3 (2 ch)
Битрейт аудио: 128 kb/s

MediaInfo

Общее
Полное имя : D:\Торрент раздача\Dnevnik_nimfomanki.avi
Формат : AVI
Формат/Информация : Audio Video Interleave
Размер файла : 739 Мбайт
Продолжительность : 1 ч. 41 м.
Общий поток : 1020 Кбит/сек
Название фильма : Diario de una ninfomana, 2008
Жанр : Erotic
Программа кодирования : VirtualDubMod 1.5.10.2 (build 2540/release)
Формат оригинала/Имя : Movie

Видео
Идентификатор : 0
Формат : MPEG-4 Visual
Профиль формата : Advanced Simple@L5
Параметр BVOP формата : 1
Параметр QPel формата : Нет
Параметр GMC формата : Без точки перехода
Параметр матрицы формата : Выборочная
Идентификатор кодека : XVID
Идентификатор кодека/Подсказка : XviD
Продолжительность : 1 ч. 41 м.
Битрейт : 883 Кбит/сек
Ширина : 640 пикселей
Высота : 272 пикселя
Соотношение сторон : 2,35:1
Частота кадров : 24,000 кадра/сек
Цветовое пространство : YUV
Субдискретизация насыщенности : 4:2:0
Битовая глубина : 8 бит
Тип развёртки : Прогрессивная
Метод сжатия : С потерями
Бит/(Пиксели*Кадры) : 0.211
Размер потока : 640 Мбайт (87%)
Библиотека кодирования : XviD 1.2.1 (UTC 2008-12-04)

Аудио
Идентификатор : 1
Формат : MPEG Audio
Версия формата : Version 1
Профиль формата : Layer 3
Режим : Joint stereo
Расширение режима : MS Stereo
Идентификатор кодека : 55
Идентификатор кодека/Подсказка : MP3
Продолжительность : 1 ч. 41 м.
Вид битрейта : Постоянный
Битрейт : 128 Кбит/сек
Каналы : 2 канала
Частота : 48,0 КГц
Метод сжатия : С потерями
Размер потока : 92,6 Мбайт (13%)
Выравнивание : Соединение по промежуткам
Продолжительность промежутка : 42 мс. (1,00 видеокадр)
Время предзагрузки промежутка : 504 мс.
Библиотека кодирования : LAME3.98r
Настройки программы : -m j -V 4 -q 2 -lowpass 17 -b 128
Скриншоты:

Смотреть Online

http://moonwalk.cc/video/74d7364b5b28495b/iframe
Детали торрента:
Название:Дневники нимфоманки / Diario de una ninfomana (2008) HDRip
Дата добавления:12 Май 2013 12:06:56
Размер:739 MB
Раздают:
Качают:0
Форум:Зарубежные Фильмы (HD*Rip/LQ, DVDRip, SATRip, VHSRip)

All rights reserved © 2015-2018