TORRENTS43.COM

Скачать Kenya-West | А. Н. Леонтьев и С. Л. Рубинштейн [2013] [ISO]


Kenya-West | А. Н. Леонтьев и С. Л. Рубинштейн [2013] [ISO]
Автор (издатель): Kenya-West
Название: А. Н. Леонтьев и С. Л. Рубинштейн
Год: 2013
Жанр: Презентация
Системные требования (если такие есть):
• OS: Windows 7, Windows 8 32-bit/64-bit;
• Microsoft Office Powerpoint 2010/2013 (рекомендуется версия 2013 для просмотра презентации);
• установленный K-Lite Codec Pack или другой универсальный плеер (необходим для просмотра фильма, содержащего H.264-кодек).
Формат: ISO

Описание:
Сделал презентацию. Тема: "А. Н. Леонтьев и С. Л. Рубинштейн".
Рубинштейн и Леонтьев, лучшие психологи, изучали поведение человека, строили теории, работали не покладая рук, даже в таком "лихом" государстве, как СССР, и в такие лихие времена, как 30-ые и 40-ые года.
В презентации рассказываются краткие биографии этих двух людей, плюс бонус в виде рассмотрения "теории деятельности".
Это, скорее, последняя презентация от Kenya-West в текущем учебном году.

Дополнительная информация:

• Автор: "Kenya-West".
• Программы: "Microsoft Office 2013" (презентация), "Adobe Audition CS6" (озвучка, обработка видео и изображений, титры), "Pinnacle Studio 16 HD Ultimate Edition" (фильм);
• "Весит" 542 Мб.

Презентация по дисциплине общая психология от Kenya-West. Динамично ориентированное главное меню интуитивно понятно, и подстроено под сенсорное управление, а десятиминутный видеоролик не скучен и так же динамичен. Уже традиционный НАСТРАИВАЕМЫЙ минималистичный стиль и возможность СМЕНЫ МУЗЫКИ прижились и признаны весьма удобными, поэтому добра добра не ищут.
В презентации можно посмотреть картинки из фильма, текст озвучки и сам фильм. Такую презентацию вы можете записать на CD-диск, USB и проигрывать с прямиком носителя.
Минималистичное интерактивное меню очень просто в освоении, и подходит для сенсорного управления "Microsoft Surface". Это "Full HD"-презентация с разрешением 1080p (фильм - 1080p). Стильный и простейший главный слайд в презентации позволяет менять звуковое сопровождение, смотреть фильм, картинки, тексты, а также узнать побольше об авторе презентации.
Делал неделю по дисциплине "Социология".
Качество - как всегда наилучшее. Анимированность - как всегда полнейшая!
Тема оформления: МИНИМАЛИЗМ 'Blue'.

Инструкция по просмотру презентации

1. Смонтировать образ;
2. Запустить презентацию (файл .ppsx);
3. Дальше всё логично и понятно. Просмотрите фильм, щёлкнув по иконке телевизора и далее по появившемуся пункту "СМОТРЕТЬ ФИЛЬМ"

О раздающем:

• Режим раздачи: днём (UTC: +10:00);
• Скорость отдачи для внутренних абонентов: ~10 Mb/sec;
• Скорость отдачи для "внешки": ~125 KB/сек.;
• Раздающий - TTK slave in Yakutsk

MediaInfo фильма презентации

Код:
General
General
Complete name                            : %Root%\Files\Movies\Рубинштейн и Леонтьев.mp4
Format                                   : MPEG-4
Format profile                           : Base Media / Version 2
Codec ID                                 : mp42
File size                                : 430 MiB
Duration                                 : 10mn 0s
Overall bit rate mode                    : Variable
Overall bit rate                         : 6 006 Kbps
Encoded date                             : UTC 2013-05-13 16:21:56
Tagged date                              : UTC 2013-05-13 16:21:56

Video
ID                                       : 1
Format                                   : AVC
Format/Info                              : Advanced Video Codec
Format profile                           : Main@L4.0
Format settings, CABAC                   : Yes
Format settings, ReFrames                : 2 frames
Format settings, GOP                     : M=3, N=15
Codec ID                                 : avc1
Codec ID/Info                            : Advanced Video Coding
Duration                                 : 10mn 0s
Bit rate mode                            : Variable
Bit rate                                 : 5 808 Kbps
Maximum bit rate                         : 17.9 Mbps
Width                                    : 1 920 pixels
Height                                   : 1 080 pixels
Display aspect ratio                     : 16:9
Frame rate mode                          : Variable
Frame rate                               : 29.970 fps
Minimum frame rate                       : 29.940 fps
Maximum frame rate                       : 29 970.000 fps
Color space                              : YUV
Chroma subsampling                       : 4:2:0
Bit depth                                : 8 bits
Scan type                                : Progressive
Bits/(Pixel*Frame)                       : 0.093
Stream size                              : 416 MiB (97%)
Language                                 : English
Encoded date                             : UTC 2013-05-13 16:21:56
Tagged date                              : UTC 2013-05-13 16:21:56

Audio
ID                                       : 2
Format                                   : AAC
Format/Info                              : Advanced Audio Codec
Format profile                           : LC
Codec ID                                 : 40
Duration                                 : 10mn 0s
Bit rate mode                            : Variable
Bit rate                                 : 192 Kbps
Maximum bit rate                         : 197 Kbps
Channel(s)                               : 2 channels
Channel positions                        : Front: L R
Sampling rate                            : 48.0 KHz
Compression mode                         : Lossy
Stream size                              : 13.6 MiB (3%)
Language                                 : English
Encoded date                             : UTC 2013-05-13 16:21:56
Tagged date                              : UTC 2013-05-13 16:21:56

Контрольные суммы:

CRC32: 4C63E64B
MD5: E707FDA5E8BB269C4C039D8D7466EDFC
SHA-1: 3C8AC3BAFC0A71CCB1E3B982D1907F1CA1C14675
Скриншоты:

Остальные скриншоты:

Детали торрента:
Название:Kenya-West | А. Н. Леонтьев и С. Л. Рубинштейн [2013] [ISO]
Дата добавления:13 Май 2013 12:14:24
Размер:543 MB
Раздают:
Качают:1
Форум:Образование

All rights reserved © 2015-2018