TORRENTS43.COM

Скачать Русский лес (1964) SATRip


Русский лес (1964) SATRip
Русское название: Русский лес
Год выпуска: 1964
Жанр: Драма
Выпущено: СССР, Мосфильм

Описание фильма:
Драма по одноименному роману Леонида Леонова. Полина приезжает в Москву, чтобы попытаться найти своего отца, профессора Вихрова, и понять, почему мать рассталась с ним. Вихров - известный ученый, всю свою жизнь он защищает лес от уничтожения. Начинается война.
Профессор Вихров продолжает читать лекции, доказывая студентам необходимость беречь лес. Полина пытается выяснить причины давней распри между отцом и академиком Грацианским.

Режиссер: Владимир Петров
Актеры: Борис Толмазов, Руфина Нифонтова, Нина Дробышева, Николай Гриценко, Мария Пастухова, Елена Фадеева, Иван Дмитриев, Любовь Соколова, Аркадий Аркадьев, Александр Лебедев, Виктор Колпаков, Майя Булгакова, Юрий Яковлев, Елена Понсова, Клавдия Половикова

Продолжительность: 02:41:21



Видеокодек: DivX 5
Битрейт видео: ~1099 Кбит/с
Размер кадра: 720 x 480
Качество видео: SATRip
Аудиокодек: MP3 2.0
Битрейт аудио: 128 Кбит/сек

MediaInfo

Общее
Полное имя : Russkiy.les.1963.DivX.SATRip.avi
Формат : AVI
Формат/Информация : Audio Video Interleave
Размер файла : 1,39 Гбайт
Продолжительность : 2 ч. 41 м.
Общий поток : 1238 Кбит/сек
Название фильма : Русский лес (1963) SATRip.
Режиссёр : Xamasas
Программа кодирования : VirtualDubModRus 1.5.10.2 (build 2542/release)
Библиотека кодирования : VirtualDubMod build 2542/release

Видео
Идентификатор : 0
Формат : MPEG-4 Visual
Параметр BVOP формата : Нет
Параметр QPel формата : Нет
Параметр GMC формата : Без точки перехода
Параметр матрицы формата : Default (H.263)
Идентификатор кодека : DX50
Идентификатор кодека/Подсказка : DivX 5
Продолжительность : 2 ч. 41 м.
Битрейт : 1100 Кбит/сек
Ширина : 640 пикселей
Высота : 480 пикселей
Соотношение сторон : 4:3
Частота кадров : 25,000 кадров/сек
Цветовое пространство : YUV
Субдискретизация насыщенности : 4:2:0
Битовая глубина : 8 бит
Тип развёртки : Прогрессивная
Метод сжатия : С потерями
Бит/(Пиксели*Кадры) : 0.143
Размер потока : 1,24 Гбайт (89%)
Библиотека кодирования : DivX 5.2.1 (WaffleDay) (UTC 2004-09-08)

Аудио
Идентификатор : 1
Формат : MPEG Audio
Версия формата : Version 1
Профиль формата : Layer 3
Режим : Joint stereo
Расширение режима : MS Stereo
Идентификатор кодека : 55
Идентификатор кодека/Подсказка : MP3
Продолжительность : 2 ч. 41 м.
Вид битрейта : Постоянный
Битрейт : 128 Кбит/сек
Каналы : 2 канала
Частота : 48,0 КГц
Метод сжатия : С потерями
Размер потока : 148 Мбайт (10%)
Выравнивание : Соединение по промежуткам
Продолжительность промежутка : 40 мс. (1,00 видеокадр)
Время предзагрузки промежутка : 504 мс.
Библиотека кодирования : LAME3.97 (be
Скриншоты:

Детали торрента:
Название:Русский лес (1964) SATRip
Дата добавления:20 Май 2013 16:24:50
Размер:1,39 GB
Раздают:
Качают:0
Форум:Старые Отечественные Фильмы (HD*Rip/LQ, DVDRip, SATRip, VHSRip)

All rights reserved © 2015-2018