TORRENTS43.COM

Скачать Симпсоны / The Simpsons (2012) WEB-DLRip (24 сезон, серии 1-22 из 22)


Симпсоны / The Simpsons / 24 сезон / Серии 1-22 из 22.
Русское название: Симпсоны
Оригинальное название: The Simpsons
Год выпуска: 2012
Жанр: Комедия, пародия, мультсериал

Язык: Русский

Описание:
Двадцать четвертый сезон мультсериала «Симпсоны» — вышел в эфир 30 сентября 2012 года на телеканале Fox. Симпсоны живут в вымышленном городе Спрингфилд, со своим обществом и историей. Гомер - отец семейства, который дает плохие советы и работает инспектором безопасности на атомной электростанции; Мардж - любящая мать и жена, старается сохранить спокойствие в семье; Барт - 10 летний хулиган; Лиза - философский 8-летний ребенок; и Мэгги - младенец, который общается посредством соски.

Режиссер: Мэтт Гроунинг / Matt Groening
Персонажи: Дэн Кастелланета, Джули Кавнер, Нэнси Картрайт, Ярдли Смит, Гарри Ширер, Хэнк Азария, Памела Хейден, Тресс МакНилл, Карл Видерготт, Мэгги Росвэлл и другие.

Продолжительность: 22 х ~ 00:20:00
Перевод: Многоголосый закадровый
Релиз группа: Nice-Media
Язык субтитров: русский (только во время исполнения песен)
Вид субтитров: вшитые

Видеокодек: Xvid

Видео: MPEG4, XviD, 720x400 (16/9), 23.976 fps, 1 234 Kbps (0.179 bit/pixel)
Аудио: MP3, 48.0 KHz, 2 ch, 128 Kbps, CBR

Сэмпл: Ссылка

ТХ/MediaInfo


General
Complete name : E:\The.Simpsons.S24\The.Simpsons.S24E01.WEB-DLRip.avi
Format : AVI
Format/Info : Audio Video Interleave
File size : 292 MiB
Duration : 20mn 28s
Overall bit rate : 1 997 Kbps
Writing application : VirtualDubMod 1.5.10.2 (build 2540/release)
Writing library : VirtualDub build 35390/release

Video
ID : 0
Format : MPEG-4 Visual
Format profile : Advanced Simple@L5
Format settings, BVOP : 2
Format settings, QPel : No
Format settings, GMC : No warppoints
Format settings, Matrix : Default (H.263)
Codec ID : XVID
Codec ID/Hint : XviD
Duration : 20mn 28s
Bit rate : 1 860 Kbps
Width : 720 pixels
Height : 400 pixels
Display aspect ratio : 16:9
Frame rate : 23.976 fps
Color space : YUV
Chroma subsampling : 4:2:0
Bit depth : 8 bits
Scan type : Progressive
Compression mode : Lossy
Bits/(Pixel*Frame) : 0.269
Stream size : 272 MiB (93%)
Writing library : XviD 1.2.1 (UTC 2008-12-04)

Audio
ID : 1
Format : MPEG Audio
Format version : Version 1
Format profile : Layer 3
Mode : Joint stereo
Mode extension : MS Stereo
Codec ID : 55
Codec ID/Hint : MP3
Duration : 20mn 28s
Bit rate mode : Constant
Bit rate : 128 Kbps
Channel(s) : 2 channels
Sampling rate : 48.0 KHz
Compression mode : Lossy
Stream size : 18.7 MiB (6%)
Alignment : Aligned on interleaves
Interleave, duration : 42 ms (1.00 video frame)
Interleave, preload duration : 504 ms
Симпсоны на torrents43.com

Скриншоты:


Смотреть Online

http://moonwalk.cc/video/642b36170733d634a13bb98d84f091f1/iframe
Детали торрента:
Название:Симпсоны / The Simpsons (2012) WEB-DLRip (24 сезон, серии 1-22 из 22)
Дата добавления:31 Май 2013 12:13:56
Размер:5,49 GB
Раздают:1
Качают:0
Форум:Зарубежные Мультсериалы

All rights reserved © 2015-2018