TORRENTS43.COM

Скачать [mp4 720 x 576] Наш футбол (Серии 1-12) (Аналог: Мульт личности и Сказочная Русь) (2013) WEB-DL


Наш футбол (2013) WEB-DL
Русское название: Наш футбол
Год выпуска: 2013
Жанр: Юмор
Выпущено: Украина, Animagrad

Описание:
Мультсериал в юмористической манере рассказывает о околофутбольной жизни спортсменов, тренеров и известных футбольных личностей. Создатели проекта уверены, что мультфильм заинтересует всех зрителей, которым известны футбольные и околофутбольные герои.
«Наш футбол», как и известный проект студии Animagrad - мультпроект «Сказочная Русь», которая выходит на канале «1+1», - создавался по технологии motion capture - захват движений живого человека и их оцифровки. На на написание сценария, съемки и монтаж минутного эпизода, когда уже есть нарисованные образы, создатели проекта тратят около двух недель.

Продолжительность: Каждая серия х ~ 00:01:30

Видеокодек: AVC
Битрейт видео: ~3200 kb/s
Размер кадра: 720 x 576
Качество видео: WEB-DL
Аудиокодек: AAC, 2ch.
Битрейт аудио: 256 kb/s

В выпуске

Серия №1: Мишель Платини очень был удивлен тем, что на картах Донецка нанесеные несуществующие станции метрополитена. Григорий Суркис и Борис Колесников нашли этому логическое, типично украинское, объяснение.
Актёры: Суркис, Колесников, Платини

Серия №2: Артем Милевский танцует, Александр Алиев ругается, Дмитрий Чигринский ждет НЛО, а Андрей Шевченко Пытается вспомнить алфавит - пресс-конференция сборной Украины перед Евро
Актёры: Алиев, Блохин, Чигринский, Милевский, Шевченко

Серия №3: Пьерлуиджи Коллина оценивает великолепную работу арбитра даже в комментаторском кресле, не давая Александру Денисову вставить слово.
Актёры: Денисов, Колина

Серия №4: Ринат Ахметов и Григорий Суркис смотрят матч против сборной Англии под комментарий Александра Денисова
Актёры: Денисов, Блохин, Суркис

Серия №5: Перед Евро-2012 Коноплянка, Алиев и Девич разыграли Эдмара, сказав ему, что новички сборной обязаны стирать форму и чистить бутсы старожилам, но Андрей Шевченко продемонстрировал шутникам, как нужно шутить по-настоящему.
Актёры: Алиев, Девич, Эдмар, Коноплянка, Шевченко

Серия №6: Перед выходом на футбольное поле Олег Блохин просит игроков вспомнить слова гимна Украины и прорепетировать исполнение так, чтобы от зубов отскакивало. Что из этого получилось?
Актёры: Блохин, Чигринский, Девич, Эдмар, Коноплянка, Милевский, Шевченко, Тимощук

Серия №7: Главный тренер сборной Украины Олег Блохин рассказывает о своем плане в предстоящем сражении и дает дельные советы футболистам.
Актёры: Блохин, Чигринский, Девич, Эдмар, Милевский, Шевченко

Серия №8: Ринат Ахметов и Григорий Суркис объясняют Мишелю Платини особенности разговорников с самыми употребляемыми фразами, выпущенных к Евро-2012.
Актёры: Суркис, Платини

Серия №9: Чигринский делает массаж Олегу Блохину, а тренер тем временем уговаривает Андрея Шевченко выйти на поле в матче против англичан.
Актёры: Суркис, Платини

Серия №10: “Жизнь, Артем, как боковой арбитр” - учит Олег Блохин Милевского жизненным мудростям. Для повышения квалификации Олег Владимирович показывает мастер-класс с матча Шахтера в исполнении Дарио Срна.
Актёры: Блохин, Милевский

Серия №11: «Шулера, а не футболисты» - Олег Блохин решил выпустить на поле фартовый состав. Что из этого вышло?
Актёры: Блохин, Чигринский, Эдмар, Шевченко

Серия №11: Нид хотел, Нид хотел. Давай махач два на два» - английский болельщик стал жертвой культурного недопонимания со стороны украинских фанатов.
Актёры: Бывалый, Хулиган, Следователь

MediaInfo

Формат : MPEG-4
Профиль формата : Base Media / Version 2
Идентификатор кодека : mp42
Размер файла : 30,8 Мбайт
Продолжительность : 1 м. 25 с.
Общий поток : 3020 Кбит/сек
Дата кодирования : UTC 2013-06-07 13:19:40
Дата пометки : UTC 2013-06-07 13:19:41

Видео
Идентификатор : 1
Формат : AVC
Формат/Информация : Advanced Video Codec
Профиль формата : Baseline@L3.0
Параметр CABAC формата : Нет
Параметр ReFrames формата : 2 кадра
Идентификатор кодека : avc1
Идентификатор кодека/Информация : Advanced Video Coding
Продолжительность : 1 м. 25 с.
Битрейт : 2760 Кбит/сек
Ширина : 720 пикселей
Высота : 576 пикселей
Соотношение сторон : 5:4
Режим частоты кадров : Постоянный
Частота кадров : 25,000 кадров/сек
Стандарт вещания : PAL
Цветовое пространство : YUV
Субдискретизация насыщенности : 4:2:0
Битовая глубина : 8 бит
Тип развёртки : Прогрессивная
Бит/(Пиксели*Кадры) : 0.266
Размер потока : 28,2 Мбайт (91%)
Язык : English
Дата кодирования : UTC 2013-06-07 13:19:40
Дата пометки : UTC 2013-06-07 13:19:41
Основные цвета : BT.601-6 525, BT.1358 525, BT.1700 NTSC, SMPTE 170M
Характеристики трансфера : BT.709-5, BT.1361
Коэффициенты матрицы : BT.601-6 525, BT.1358 525, BT.1700 NTSC, SMPTE 170M

Аудио
Идентификатор : 2
Формат : AAC
Формат/Информация : Advanced Audio Codec
Профиль формата : LC
Идентификатор кодека : 40
Продолжительность : 1 м. 25 с.
Вид битрейта : Постоянный
Битрейт : 256 Кбит/сек
Каналы : 2 канала
Расположение каналов : Front: L R
Частота : 48,0 КГц
Метод сжатия : С потерями
Размер потока : 2,61 Мбайт (8%)
Язык : English
Дата кодирования : UTC 2013-06-07 13:19:40
Дата пометки : UTC 2013-06-07 13:19:41

Формат : MPEG-4
Профиль формата : Base Media / Version 2
Идентификатор кодека : mp42
Размер файла : 34,6 Мбайт
Продолжительность : 1 м. 11 с.
Общий поток : 4065 Кбит/сек
Дата кодирования : UTC 2013-06-07 13:26:43
Дата пометки : UTC 2013-06-07 13:26:43

Видео
Идентификатор : 1
Формат : AVC
Формат/Информация : Advanced Video Codec
Профиль формата : Baseline@L3.0
Параметр CABAC формата : Нет
Параметр ReFrames формата : 2 кадра
Идентификатор кодека : avc1
Идентификатор кодека/Информация : Advanced Video Coding
Продолжительность : 1 м. 11 с.
Битрейт : 3805 Кбит/сек
Ширина : 720 пикселей
Высота : 576 пикселей
Соотношение сторон : 5:4
Режим частоты кадров : Постоянный
Частота кадров : 25,000 кадров/сек
Стандарт вещания : PAL
Цветовое пространство : YUV
Субдискретизация насыщенности : 4:2:0
Битовая глубина : 8 бит
Тип развёртки : Прогрессивная
Бит/(Пиксели*Кадры) : 0.367
Размер потока : 32,4 Мбайт (94%)
Язык : English
Дата кодирования : UTC 2013-06-07 13:26:43
Дата пометки : UTC 2013-06-07 13:26:43
Основные цвета : BT.601-6 525, BT.1358 525, BT.1700 NTSC, SMPTE 170M
Характеристики трансфера : BT.709-5, BT.1361
Коэффициенты матрицы : BT.601-6 525, BT.1358 525, BT.1700 NTSC, SMPTE 170M

Аудио
Идентификатор : 2
Формат : AAC
Формат/Информация : Advanced Audio Codec
Профиль формата : LC
Идентификатор кодека : 40
Продолжительность : 1 м. 11 с.
Вид битрейта : Постоянный
Битрейт : 256 Кбит/сек
Каналы : 2 канала
Расположение каналов : Front: L R
Частота : 48,0 КГц
Метод сжатия : С потерями
Размер потока : 2,18 Мбайт (6%)
Язык : English
Дата кодирования : UTC 2013-06-07 13:26:43
Дата пометки : UTC 2013-06-07 13:26:43
Скриншоты:
Детали торрента:
Название:[mp4 720 x 576] Наш футбол (Серии 1-12) (Аналог: Мульт личности и Сказочная Русь) (2013) WEB-DL
Дата добавления:16 Сен 2013 00:05:37
Размер:514 MB
Раздают:
Качают:0
Форум:Мобильное Видео

All rights reserved © 2015-2018