TORRENTS43.COM

Скачать Настоящая кровь / True Blood (Сезон 6 полный (10)) (2013) WEB-DL 720р (Кубик в Кубе) (обновляемая)


Настоящая кровь / True Blood
(Сезон 6, серии 01-10 из 10) (2013) WEB-DL 720р (Кубик в Кубе)

Русское название: Настоящая кровь
Оригинальное название: True Blood
Год выхода: 2013
Производство: США, НВО
Жанр: Фэнтези, триллер, драма
Сезон: 6
Серии: 01-10 из 10 серий
Продолжительность: ~ 60:00 мин серия


Перевод: Профессиональный двухголосый закадровый - Кубик в Кубе

Режиссер: Майкл Леманн, Скотт Уинант, Даниэль Минахан
В ролях: Анна Пакуин, Стивен Мойер, Сэм Траммелл, Райан Квантен, Рутина Уэсли, Кристофер Бауэр, Нелсан Эллис, Джим Пэррак, Кэрри Престон, Александр Скарсгард и др.

Описание:
События разворачиваются в небольшом городке в пригороде Нового Орлеана. С тех пор, как японцы изобрели синтетическую кровь «True Blood», у вампиров отпала необходимость убивать простых смертных. Два года назад вампиры покинули свои гробы и официально заявили о своих правах. Но как водится, не все люди оказались готовы к этому, и не все вампиры были рады отказаться от привычного лакомства. Сьюки Стакхаус — обычная официантка из пригородного кафе, наделенная способностью читать мысли окружающих, знакомится с «хорошим» вампиром Биллом Комптоном. И сразу приобретает много врагов среди «плохих парней»

ВНИМАНИЕ! В сериале много крови, откровенных сцен, а также присутствует мат, как в оригинале, так и в озвучке.


Качество: WEB-DL 720р
Видео: MPEG-4 AVC, ~ 4000 Кбит/с, 1280x720
Аудио: AC3, 6 ch, 384 Кбит/с (RU, EN)
| Сэмпл видео | Все раздачи|

МИ

True.Blood.s06e01.rus.eng.720p.CasStudio.mkv
Format : Matroska
Format version : Version 4 / Version 2
File size : 1.76 GiB
Duration : 52mn 5s
Overall bit rate : 4 846 Kbps
Encoded date : UTC 2013-06-18 15:42:41
Writing application : mkvmerge v6.0.0 ('Coming Up For Air') built on Jan 20 2013 09:52:00
Writing library : libebml v1.3.0 + libmatroska v1.4.0
Video #1
ID : 1
Format : AVC
Format/Info : Advanced Video Codec
Format profile : High@L3.1
Format settings, CABAC : No
Format settings, ReFrames : 2 frames
Format settings, GOP : N=1
Codec ID : V_MPEG4/ISO/AVC
Duration : 52mn 5s
Bit rate : 3 982 Kbps
Width : 1 280 pixels
Height : 720 pixels
Display aspect ratio : 16:9
Frame rate mode : Constant
Frame rate : 23.976 fps
Color space : YUV
Chroma subsampling : 4:2:0
Bit depth : 8 bits
Scan type : Progressive
Bits/(Pixel*Frame) : 0.180
Stream size : 1.45 GiB (82%)
Default : Yes
Forced : No
Color primaries : BT.709
Transfer characteristics : BT.709
Matrix coefficients : BT.709
Audio #2
ID : 2
Format : AC-3
Format/Info : Audio Coding 3
Mode extension : CM (complete main)
Format settings, Endianness : Big
Codec ID : A_AC3
Duration : 52mn 5s
Bit rate mode : Constant
Bit rate : 384 Kbps
Channel(s) : 6 channels
Channel positions : Front: L C R, Side: L R, LFE
Sampling rate : 48.0 KHz
Bit depth : 16 bits
Compression mode : Lossy
Stream size : 143 MiB (8%)
Language : Russian
Default : Yes
Forced : No
Audio #3
ID : 3
Format : AC-3
Format/Info : Audio Coding 3
Mode extension : CM (complete main)
Format settings, Endianness : Big
Codec ID : A_AC3
Duration : 52mn 5s
Bit rate mode : Constant
Bit rate : 384 Kbps
Channel(s) : 6 channels
Channel positions : Front: L C R, Side: L R, LFE
Sampling rate : 48.0 KHz
Bit depth : 16 bits
Compression mode : Lossy
Stream size : 143 MiB (8%)
Language : English
Default : No
Forced : No

Внимание! Раздача ведётся путём добавления новых серий!

Внимание! Раздача ведётся путём добавления новых серий; при каждом добавлении создаётся новый торрент.
Чтобы начать докачку новой серии, пользователям необходимо сделать следующее:
(1) остановить скачивание;
(2) удалить старый торрент у себя из клиента (старые серии удалять не надо);
(3) скачать новый торрент и запустить его у себя в клиенте вместо старого, при этом указать клиенту путь в старую папку куда и должно происходить скачивание новых серий.Ваш клиент при этом должен произвести хеширование (проверку) старой папки (если не производит сам - помогите ему сделать это), и будет докачивать только те серии которых у вас ещё нет. Старые серии при этом не удаляются, а продолжают раздаваться!Eсли вы уже удалили старые серии, то предотвратить повторную закачку старых серий можно, отжав галочку в соответствующих местах при запуске нового торрента.

<<<Скриншоты>>>

еще





Альтернативные постеры


Смотреть Online

http://moonwalk.cc/serial/1a888562742d102d92258be19b87494f/iframe
Детали торрента:
Название:Настоящая кровь / True Blood (Сезон 6 полный (10)) (2013) WEB-DL 720р (Кубик в Кубе) (обновляемая)
Дата добавления:02 Сен 2013 09:55:16
Размер:18,4 GB
Раздают:1
Качают:0
Форум:Дневники вампира / The Vampire Diaries ; Настоящая кровь / True Blood

All rights reserved © 2015-2018