TORRENTS43.COM

Скачать Крылья России. Ту-160. «Белый лебедь» стратегического назначения (2013) DVDRip


Крылья России. Ту-160. «Белый лебедь» стратегического назначения (2013) DVDRip
Режиссер / Телекомпания: Алексей Терёшкин / Россия, киностудия «Крылья России»
Год выпуска: 2013
Жанр: Документальный

Описание:
Этот фильм рассказывает об отечественном стратегическом бомбардировщике Ту-160. Редкие кадры, воздушные съёмки, 3D анимация, интервью с конструкторами, инженерами и лётчиками - всё это вы увидите в фильме «Ту-160. «Белый лебедь» стратегического назначения». Ту-160 - самый мощный стратегический ракетоносец конца ХХ века. В конструкции этого самолёта воплотились самые передовые технологии советской авиапромышленности. Ныне самолёты этого типа переживают второе рождение - настала пора их модернизации. Фильм рассказывает об истории создания, особенности конструкции, а также о строевой эксплуатации Ту-160 лётчиками авиабазы Энгельс. Русский дикторский текст читает Народный артист России Александр Клюквин.

Доп. информация: DVDRip by alf62
Большое СПАСИБО Гонец за предоставленный первоисточник DVD.


Продолжительность: 00:38:17
Качество видео: DVDRip

Перевод: Отсутствует

Видеокодек: DivX 5
Битрейт видео: ~1903 kbps avg
Размер кадра: 704x400
Аудиокодек: AC3
Битрейт аудио: 192.00 kbps avg (2 канала стерео)

MediaInfo:

Открыть

General
Complete name : E:\Торенты\torrents43.com\Ту-160. Белый лебедь стратегического назначения\Tu-160.Belyj.lebed.strategicheskogo.naznachenija..DVDRip.alf62.avi
Format : AVI
Format/Info : Audio Video Interleave
File size : 576 MiB
Duration : 38mn 17s
Overall bit rate : 2 102 Kbps
Writing application : VirtualDubMod 1.5.10.3 | www.virtualdub-fr.org || (build 2550/release)
Writing library : VirtualDubMod build 2550/release

Video
ID : 0
Format : MPEG-4 Visual
Format profile : Advanced Simple@L5
Format settings, BVOP : 2
Format settings, QPel : No
Format settings, GMC : No warppoints
Format settings, Matrix : Default (MPEG)
Codec ID : DX50
Codec ID/Hint : DivX 5
Duration : 38mn 17s
Bit rate : 1 900 Kbps
Width : 704 pixels
Height : 400 pixels
Display aspect ratio : 16:9
Frame rate : 25.000 fps
Color space : YUV
Chroma subsampling : 4:2:0
Bit depth : 8 bits
Scan type : Progressive
Compression mode : Lossy
Bits/(Pixel*Frame) : 0.270
Stream size : 520 MiB (90%)
Writing library : XviD 73

Audio
ID : 1
Format : AC-3
Format/Info : Audio Coding 3
Mode extension : CM (complete main)
Format settings, Endianness : Big
Codec ID : 2000
Duration : 38mn 16s
Bit rate mode : Constant
Bit rate : 192 Kbps
Channel(s) : 2 channels
Channel positions : Front: L R
Sampling rate : 48.0 KHz
Bit depth : 16 bits
Compression mode : Lossy
Stream size : 52.6 MiB (9%)
Alignment : Split accross interleaves
Interleave, duration : 40 ms (1.00 video frame)
Interleave, preload duration : 500 ms
Скиншоты:




Еще скриншоты:

Открыть







Детали торрента:
Название:Крылья России. Ту-160. «Белый лебедь» стратегического назначения (2013) DVDRip
Дата добавления:26 Июн 2013 03:19:51
Размер:576 MB
Раздают:
Качают:0
Форум:Крылья России

All rights reserved © 2015-2018