TORRENTS43.COM

Скачать Uriah Heep - Conquest (1980) [APE 2.0 24/192|image (Vinyl-Rip)]<Hard Rock, Classic Rock>


Uriah Heep - Conquest (1980)
Год: 1980
Жанр: Hard Rock, Classic Rock
Продолжительность: 00:42:51

Лейбл: Bronze Records (BRONX 524)
Страна: UK
Сканы: Front, Back. In
Автор оцифровки: Alex Blackseam

Кодек: APE 2.0 24/192
Тип рипа: image+.cue

Трек лист:
A1. No Return [6:01]
A2. Imagination [5:50]
A3. Feelings [5:26]
A4. Fools [5:06]
B1. Carry On [3:56]
B2. Won't Have To Wait Too Long [4:54]
B3. Out On The Street [5:56]
B4. It Ain't Easy [5:42]



Медиа Инфо

Код:

General
Complete name                            : F:\...\1980 - Conquest\Side A.ape
Format                                   : Monkey's Audio
File size                                : 878 MiB
Duration                                 : 22mn 29s
Overall bit rate                         : 5 462 Kbps

Audio
Format                                   : Monkey's Audio
Duration                                 : 22mn 29s
Bit rate                                 : 5 462 Kbps
Channel(s)                               : 2 channels
Sampling rate                            : 192 KHz
Bit depth                                : 24 bits
Compression mode                         : Lossless
Compression ratio                        : 1.687
Stream size                              : 878 MiB (100%)
Encoding settings                        : Normal

General
Complete name                            : F:\...\1980 - Conquest\Side B.ape
Format                                   : Monkey's Audio
File size                                : 800 MiB
Duration                                 : 20mn 35s
Overall bit rate                         : 5 432 Kbps

Audio
Format                                   : Monkey's Audio
Duration                                 : 20mn 35s
Bit rate                                 : 5 432 Kbps
Channel(s)                               : 2 channels
Sampling rate                            : 192 KHz
Bit depth                                : 24 bits
Compression mode                         : Lossless
Compression ratio                        : 1.697
Stream size                              : 800 MiB (100%)
Encoding settings                        : Normal

Dynamic Range Meter

Код:

foobar2000 1.2.2 / Dynamic Range Meter 1.1.1
log date: 2013-07-16 04:13:31

--------------------------------------------------------------------------------
Analyzed: Uriah Heep / Conquest
--------------------------------------------------------------------------------

DR         Peak         RMS     Duration Track
--------------------------------------------------------------------------------
DR12      -0.83 dB   -15.60 dB      6:01 ?-No Return
DR13       0.00 dB   -16.15 dB      5:50 ?-Imagination
DR13      -0.34 dB   -15.12 dB      5:26 ?-Feelings
DR12       0.00 dB   -15.81 dB      5:06 ?-Fools
DR11       0.00 dB   -12.85 dB      3:56 ?-Carry On
DR12       0.00 dB   -13.54 dB      4:54 ?-Won't Have To Wait Too Long
DR13       0.00 dB   -16.84 dB      5:56 ?-Out On The Street
DR12       0.00 dB   -14.90 dB      5:42 ?-It Ain't Easy
--------------------------------------------------------------------------------

Number of tracks:  8
Official DR value: DR12

Samplerate:        192000 Hz
Channels:          2
Bits per sample:   24
Bitrate:           5432 kbps
Codec:             Monkey's Audio
================================================================================

Спектр, АЧХ, Уровень записи

Тех. информация

Класс состояния винила: NM
Устройство воспроизведения: Technics SL-1210 MK2 + Sumiko Blue Point Special Evo III
Фонокорректор: NAD PP 2
АЦП: RME Fireface 400
Программа: Fireface (в комплекте с АЦП)
Формат записи: 24 Bit / 192 kHz
Студия располагается в подземном бетонном бункере.
На период оцифровки все мобильные телефоны были выключены.

Пятаки

:незнает:

Детали торрента:
Название:Uriah Heep - Conquest (1980) [APE 2.0 24/192|image (Vinyl-Rip)]<Hard Rock, Classic Rock>
Дата добавления:16 Июл 2013 11:08:17
Размер:1,65 GB
Раздают:1
Качают:0
Форум:Vinyl-Rip и Hand-Made

All rights reserved © 2015-2018