TORRENTS43.COM

Скачать Гуппи и Пузырики / Bubble Guppies (2011-2013) SATRip (2 сезон, 19 серий из 19)


Гуппи и Пузырики / Bubble Guppies (2011-2013) SATRip (2 сезон, 19 серий из 19)
Год выпуска: 2011-2013
Жанр: Детский, Комедия
Страна: США

Язык: Русский

Описание:
Гуппи живут в вымышленном подводном городе Бабблтаки. Все эпизоды выдержаны приблизительно в одном и том же формате. Серия начинается со вступления, где Гил прерывает Молли, которая пытается рассказать что-то, что связанно с темой эпизода. Один из них восклицает: «Пришло время для Пузырьков Гуппи!», и начинает играть песня – заглавная тема. После того как она кончается, три маленьких рыбки объявляют название эпизода.

После опенинга показывают сцену с одним или более персонажем, после чего все Пузырьки Гуппи собираются вместе, и обсуждают недавнее событие с мистером Группером. Снова начинает играть песня, теперь уже связанная с основной темой эпизода. После её окончания один или несколько персонажей идут в магазин, связанный с темой серии. Владелец магазина (которым выступает кто-нибудь из Пузырьков Гуппи) спрашивает, что им требуется. Позднее мистер Группер приходит в магазин и говорит что настало время обеда, и начинает играть «обеденная песенка». Во время обеда персонажи делают с едой что-нибудь забавное, связанное с темой эпизода.

После обеда показывают ещё один скетч с Гилом и Молли. Гуппи проводят время в активном отдыхе, и обсуждают что-нибудь с мистером Группером насчёт темы эпизода под сопровождение танцевальной песни. После этого мистер Группер говорит, что настало время прощаться, играет «прощальная песенка» и Гуппи завершают историю о теме эпизода (во втором сезоне сначала история, а затем песня). Затем Гил и Молли показывают третий скетч. Гуппи идут на экскурсию по теме эпизода, и серия завершается последним скетчем с Гилом и Молли, а перед финальными титрами ещё раз играет песня из заглавной темы сериала.

Режиссер: Джонни Белт и Роберт Сколл (Johnny Belt and Robert Scull)
Персонажи: Молли, Гил, Гоби, Дина, Уна, Нони, Щенок Пузырёк, Мистер Группер



Продолжительность: 18 х ~00:22:55 + 1 x 00:44:29
Качество видео: SATRip
Перевод: Полный дубляж, вкл. песни
Автор перевода: Алексей Зражевский
Релиз группа: SATRip by Аниретака

серии - 1-3, 6, 9, 11
Видео: MPEG4, XviD, 640x480 (4:3), 25.000 fps, 1 295 Kbps (0.169 bit/pixel)
Аудио: MP3, 48.0 KHz, 2 ch, 192 Kbps, CBR

серии - 5, 7, 8, 10, 12-19
Видео: mp43, 1024x576 (16:9), 25.000 fps, 2 001 Kbps (0.136 bit/pixel)
Аудио: MP3, 44.1 KHz, 2 ch, 128 Kbps, CBR

серия - 4
Видео: mp43, 640x480 (4:3), 25.000 fps, 1 224 Kbps (0.159 bit/pixel)
Аудио: MP3, 48.0 KHz, 2 ch, 192 Kbps, CBR

Раздача обновлена: серия 4 заменена на полную (44 минуты)

Список серий

1. Отмечено крестиком (X Marks the Spot)
2. С наступающим мистер Ворчун (Happy Holidays, Mr. Grumpfish!)
3. Одинокий носорог (The Lonely Rhino)
4. Волшебная сказка о щенке Пузырьке (полная версия) (Bubble Puppy's Fintastic Fairy Tale)
5. Парад ковбойш (The Cowgirl Parade)
6. Пожарный Гил спешит на помощь (Firefighter Gil to the Rescue!)
7. Прощай молочный зуб (A Tooth on the Looth)
8. Робогрузовик (Humunga-Truck!)
9. В библиотеке (Check It Out!)
10. На Бичболл (The Beach Ball!)
11. Удивительный цирк Скампини (Sizzling Scampinis)
12. Стройка расстройка (Construction Psyched)
13. Буль буль кадабра (Bubble-Cadabra)
14. Буль буль утята (Bubble Duckies)
15. Трехколейная гонка (Triple Track Train Race)
16. Где нос Сфинкса (Only the Sphinx Nose)
17. Сер Нонни Славный (Sir Nonny The Nice)
18. Жучки и паучки (Bring on the Bugs!)
19. Кудри и хвосты (Good Hair Day)

MediaInfo

Общее
Полное имя : D:\releases\Гуппи и Пузырики. Сезон 2 [Torrents43.com]\02.01 Отмечено крестиком.avi
Формат : AVI
Формат/Информация : Audio Video Interleave
Размер файла : 293 Мбайт
Продолжительность : 22 м.
Общий поток : 1824 Кбит/сек

Видео
Идентификатор : 0
Формат : MPEG-4 Visual
Профиль формата : Simple@L3
Параметр BVOP формата : Нет
Параметр QPel формата : Нет
Параметр GMC формата : Без точки перехода
Параметр матрицы формата : Default (H.263)
Идентификатор кодека : XVID
Идентификатор кодека/Подсказка : XviD
Продолжительность : 22 м.
Битрейт : 1615 Кбит/сек
Ширина : 640 пикселей
Высота : 480 пикселей
Соотношение сторон : 4:3
Частота кадров : 25,000 кадров/сек
Цветовое пространство : YUV
Субдискретизация насыщенности : 4:2:0
Битовая глубина : 8 бит
Тип развёртки : Прогрессивная
Метод сжатия : С потерями
Бит/(Пиксели*Кадры) : 0.210
Размер потока : 260 Мбайт (89%)
Библиотека кодирования : XviD 1.2.1 (UTC 2008-12-04)

Аудио
Идентификатор : 1
Формат : MPEG Audio
Версия формата : Version 1
Профиль формата : Layer 3
Режим : Joint stereo
Расширение режима : MS Stereo
Идентификатор кодека : 55
Идентификатор кодека/Подсказка : MP3
Продолжительность : 22 м.
Вид битрейта : Постоянный
Битрейт : 192 Кбит/сек
Каналы : 2 канала
Частота : 48,0 КГц
Метод сжатия : С потерями
Размер потока : 30,9 Мбайт (11%)
Выравнивание : Соединение по промежуткам
Продолжительность промежутка : 24 мс. (0,60 видеокадр)
Библиотека кодирования : LAME3.98.2

Общее
Полное имя : D:\releases\Гуппи и Пузырики. Сезон 2 [Torrents43.com]\02.02 С наступающим мистер Ворчун.avi
Формат : AVI
Формат/Информация : Audio Video Interleave
Размер файла : 304 Мбайт
Продолжительность : 22 м.
Общий поток : 1894 Кбит/сек

Видео
Идентификатор : 0
Формат : MPEG-4 Visual
Профиль формата : Simple@L3
Параметр BVOP формата : Нет
Параметр QPel формата : Нет
Параметр GMC формата : Без точки перехода
Параметр матрицы формата : Default (H.263)
Идентификатор кодека : XVID
Идентификатор кодека/Подсказка : XviD
Продолжительность : 22 м.
Битрейт : 1685 Кбит/сек
Ширина : 640 пикселей
Высота : 480 пикселей
Соотношение сторон : 4:3
Частота кадров : 25,000 кадров/сек
Цветовое пространство : YUV
Субдискретизация насыщенности : 4:2:0
Битовая глубина : 8 бит
Тип развёртки : Прогрессивная
Метод сжатия : С потерями
Бит/(Пиксели*Кадры) : 0.219
Размер потока : 271 Мбайт (89%)
Библиотека кодирования : XviD 1.2.1 (UTC 2008-12-04)

Аудио
Идентификатор : 1
Формат : MPEG Audio
Версия формата : Version 1
Профиль формата : Layer 3
Режим : Joint stereo
Расширение режима : MS Stereo
Идентификатор кодека : 55
Идентификатор кодека/Подсказка : MP3
Продолжительность : 22 м.
Вид битрейта : Постоянный
Битрейт : 192 Кбит/сек
Каналы : 2 канала
Частота : 48,0 КГц
Метод сжатия : С потерями
Размер потока : 30,9 Мбайт (10%)
Выравнивание : Соединение по промежуткам
Продолжительность промежутка : 24 мс. (0,60 видеокадр)
Библиотека кодирования : LAME3.98.2

Общее
Полное имя : D:\releases\Гуппи и Пузырики. Сезон 2 [Torrents43.com]\02.03 Одинокий носорог.avi
Формат : AVI
Формат/Информация : Audio Video Interleave
Размер файла : 242 Мбайт
Продолжительность : 22 м.
Общий поток : 1504 Кбит/сек

Видео
Идентификатор : 0
Формат : MPEG-4 Visual
Профиль формата : Simple@L3
Параметр BVOP формата : Нет
Параметр QPel формата : Нет
Параметр GMC формата : Без точки перехода
Параметр матрицы формата : Default (H.263)
Идентификатор кодека : XVID
Идентификатор кодека/Подсказка : XviD
Продолжительность : 22 м.
Битрейт : 1295 Кбит/сек
Ширина : 640 пикселей
Высота : 480 пикселей
Соотношение сторон : 4:3
Частота кадров : 25,000 кадров/сек
Цветовое пространство : YUV
Субдискретизация насыщенности : 4:2:0
Битовая глубина : 8 бит
Тип развёртки : Прогрессивная
Метод сжатия : С потерями
Бит/(Пиксели*Кадры) : 0.169
Размер потока : 208 Мбайт (86%)
Библиотека кодирования : XviD 1.2.1 (UTC 2008-12-04)

Аудио
Идентификатор : 1
Формат : MPEG Audio
Версия формата : Version 1
Профиль формата : Layer 3
Режим : Joint stereo
Расширение режима : MS Stereo
Идентификатор кодека : 55
Идентификатор кодека/Подсказка : MP3
Продолжительность : 22 м.
Вид битрейта : Постоянный
Битрейт : 192 Кбит/сек
Каналы : 2 канала
Частота : 48,0 КГц
Метод сжатия : С потерями
Размер потока : 30,9 Мбайт (13%)
Выравнивание : Соединение по промежуткам
Продолжительность промежутка : 24 мс. (0,60 видеокадр)
Библиотека кодирования : LAME3.98.2

Общее
Полное имя : D:\releases\Гуппи и Пузырики. Сезон 2 [Torrents43.com]\02.04 Волшебная сказка о щенке Пузырьке.avi
Формат : AVI
Формат/Информация : Audio Video Interleave
Размер файла : 456 Мбайт
Продолжительность : 44 м.
Общий поток : 1433 Кбит/сек

Видео
Идентификатор : 0
Формат : mp43
Идентификатор кодека : mp43
Продолжительность : 44 м.
Битрейт : 1224 Кбит/сек
Ширина : 640 пикселей
Высота : 480 пикселей
Соотношение сторон : 4:3
Частота кадров : 25,000 кадров/сек
Бит/(Пиксели*Кадры) : 0.159
Размер потока : 390 Мбайт (85%)

Аудио
Идентификатор : 1
Формат : MPEG Audio
Версия формата : Version 1
Профиль формата : Layer 3
Режим : Joint stereo
Расширение режима : MS Stereo
Идентификатор кодека : 55
Идентификатор кодека/Подсказка : MP3
Продолжительность : 44 м.
Вид битрейта : Постоянный
Битрейт : 192 Кбит/сек
Каналы : 2 канала
Частота : 48,0 КГц
Метод сжатия : С потерями
Размер потока : 61,1 Мбайт (13%)
Выравнивание : Соединение по промежуткам
Продолжительность промежутка : 24 мс. (0,60 видеокадр)
Библиотека кодирования : LAME3.98.2

Общее
Полное имя : D:\releases\Гуппи и Пузырики. Сезон 2 [Torrents43.com]\02.05 Парад ковбойш.avi
Формат : AVI
Формат/Информация : Audio Video Interleave
Размер файла : 352 Мбайт
Продолжительность : 22 м.
Общий поток : 2145 Кбит/сек

Видео
Идентификатор : 0
Формат : mp43
Идентификатор кодека : mp43
Продолжительность : 22 м.
Битрейт : 2001 Кбит/сек
Ширина : 1024 пикселя
Высота : 576 пикселей
Соотношение сторон : 16:9
Частота кадров : 25,000 кадров/сек
Бит/(Пиксели*Кадры) : 0.136
Размер потока : 328 Мбайт (93%)

Аудио
Идентификатор : 1
Формат : MPEG Audio
Версия формата : Version 1
Профиль формата : Layer 3
Режим : Joint stereo
Расширение режима : MS Stereo
Идентификатор кодека : 55
Идентификатор кодека/Подсказка : MP3
Продолжительность : 22 м.
Вид битрейта : Постоянный
Битрейт : 128 Кбит/сек
Каналы : 2 канала
Частота : 44,1 КГц
Метод сжатия : С потерями
Размер потока : 21,0 Мбайт (6%)
Выравнивание : Соединение по промежуткам
Продолжительность промежутка : 26 мс. (0,65 видеокадр)
Библиотека кодирования : LAME3.98.2

Общее
Полное имя : D:\releases\Гуппи и Пузырики. Сезон 2 [Torrents43.com]\02.06 Пожарный Гил спешит на помощь.avi
Формат : AVI
Формат/Информация : Audio Video Interleave
Размер файла : 242 Мбайт
Продолжительность : 22 м.
Общий поток : 1507 Кбит/сек

Видео
Идентификатор : 0
Формат : MPEG-4 Visual
Профиль формата : Simple@L3
Параметр BVOP формата : Нет
Параметр QPel формата : Нет
Параметр GMC формата : Без точки перехода
Параметр матрицы формата : Default (H.263)
Идентификатор кодека : XVID
Идентификатор кодека/Подсказка : XviD
Продолжительность : 22 м.
Битрейт : 1298 Кбит/сек
Ширина : 640 пикселей
Высота : 480 пикселей
Соотношение сторон : 4:3
Частота кадров : 25,000 кадров/сек
Цветовое пространство : YUV
Субдискретизация насыщенности : 4:2:0
Битовая глубина : 8 бит
Тип развёртки : Прогрессивная
Метод сжатия : С потерями
Бит/(Пиксели*Кадры) : 0.169
Размер потока : 209 Мбайт (86%)
Библиотека кодирования : XviD 1.2.1 (UTC 2008-12-04)

Аудио
Идентификатор : 1
Формат : MPEG Audio
Версия формата : Version 1
Профиль формата : Layer 3
Режим : Joint stereo
Расширение режима : MS Stereo
Идентификатор кодека : 55
Идентификатор кодека/Подсказка : MP3
Продолжительность : 22 м.
Вид битрейта : Постоянный
Битрейт : 192 Кбит/сек
Каналы : 2 канала
Частота : 48,0 КГц
Метод сжатия : С потерями
Размер потока : 30,9 Мбайт (13%)
Выравнивание : Соединение по промежуткам
Продолжительность промежутка : 24 мс. (0,60 видеокадр)
Библиотека кодирования : LAME3.98.2

Общее
Полное имя : D:\releases\Гуппи и Пузырики. Сезон 2 [Torrents43.com]\02.07 Прощай молочный зуб.avi
Формат : AVI
Формат/Информация : Audio Video Interleave
Размер файла : 352 Мбайт
Продолжительность : 22 м.
Общий поток : 2146 Кбит/сек

Видео
Идентификатор : 0
Формат : mp43
Идентификатор кодека : mp43
Продолжительность : 22 м.
Битрейт : 2002 Кбит/сек
Ширина : 1024 пикселя
Высота : 576 пикселей
Соотношение сторон : 16:9
Частота кадров : 25,000 кадров/сек
Бит/(Пиксели*Кадры) : 0.136
Размер потока : 329 Мбайт (93%)

Аудио
Идентификатор : 1
Формат : MPEG Audio
Версия формата : Version 1
Профиль формата : Layer 3
Режим : Joint stereo
Расширение режима : MS Stereo
Идентификатор кодека : 55
Идентификатор кодека/Подсказка : MP3
Продолжительность : 22 м.
Вид битрейта : Постоянный
Битрейт : 128 Кбит/сек
Каналы : 2 канала
Частота : 44,1 КГц
Метод сжатия : С потерями
Размер потока : 21,0 Мбайт (6%)
Выравнивание : Соединение по промежуткам
Продолжительность промежутка : 26 мс. (0,65 видеокадр)
Библиотека кодирования : LAME3.98.2

Общее
Полное имя : D:\releases\Гуппи и Пузырики. Сезон 2 [Torrents43.com]\02.08 Робогрузовик.avi
Формат : AVI
Формат/Информация : Audio Video Interleave
Размер файла : 352 Мбайт
Продолжительность : 22 м.
Общий поток : 2146 Кбит/сек

Видео
Идентификатор : 0
Формат : mp43
Идентификатор кодека : mp43
Продолжительность : 22 м.
Битрейт : 2002 Кбит/сек
Ширина : 1024 пикселя
Высота : 576 пикселей
Соотношение сторон : 16:9
Частота кадров : 25,000 кадров/сек
Бит/(Пиксели*Кадры) : 0.136
Размер потока : 328 Мбайт (93%)

Аудио
Идентификатор : 1
Формат : MPEG Audio
Версия формата : Version 1
Профиль формата : Layer 3
Режим : Joint stereo
Расширение режима : MS Stereo
Идентификатор кодека : 55
Идентификатор кодека/Подсказка : MP3
Продолжительность : 22 м.
Вид битрейта : Постоянный
Битрейт : 128 Кбит/сек
Каналы : 2 канала
Частота : 44,1 КГц
Метод сжатия : С потерями
Размер потока : 21,0 Мбайт (6%)
Выравнивание : Соединение по промежуткам
Продолжительность промежутка : 26 мс. (0,65 видеокадр)
Библиотека кодирования : LAME3.98.2

Общее
Полное имя : D:\releases\Гуппи и Пузырики. Сезон 2 [Torrents43.com]\02.09 В библиотеке.avi
Формат : AVI
Формат/Информация : Audio Video Interleave
Размер файла : 271 Мбайт
Продолжительность : 22 м.
Общий поток : 1688 Кбит/сек

Видео
Идентификатор : 0
Формат : MPEG-4 Visual
Профиль формата : Simple@L3
Параметр BVOP формата : Нет
Параметр QPel формата : Нет
Параметр GMC формата : Без точки перехода
Параметр матрицы формата : Default (H.263)
Идентификатор кодека : XVID
Идентификатор кодека/Подсказка : XviD
Продолжительность : 22 м.
Битрейт : 1479 Кбит/сек
Ширина : 640 пикселей
Высота : 480 пикселей
Соотношение сторон : 4:3
Частота кадров : 25,000 кадров/сек
Цветовое пространство : YUV
Субдискретизация насыщенности : 4:2:0
Битовая глубина : 8 бит
Тип развёртки : Прогрессивная
Метод сжатия : С потерями
Бит/(Пиксели*Кадры) : 0.193
Размер потока : 238 Мбайт (88%)
Библиотека кодирования : XviD 1.2.1 (UTC 2008-12-04)

Аудио
Идентификатор : 1
Формат : MPEG Audio
Версия формата : Version 1
Профиль формата : Layer 3
Режим : Joint stereo
Расширение режима : MS Stereo
Идентификатор кодека : 55
Идентификатор кодека/Подсказка : MP3
Продолжительность : 22 м.
Вид битрейта : Постоянный
Битрейт : 192 Кбит/сек
Каналы : 2 канала
Частота : 48,0 КГц
Метод сжатия : С потерями
Размер потока : 30,9 Мбайт (11%)
Выравнивание : Соединение по промежуткам
Продолжительность промежутка : 24 мс. (0,60 видеокадр)
Библиотека кодирования : LAME3.98

Общее
Полное имя : D:\releases\Гуппи и Пузырики. Сезон 2 [Torrents43.com]\02.10 На Бичболл.avi
Формат : AVI
Формат/Информация : Audio Video Interleave
Размер файла : 352 Мбайт
Продолжительность : 22 м.
Общий поток : 2146 Кбит/сек

Видео
Идентификатор : 0
Формат : mp43
Идентификатор кодека : mp43
Продолжительность : 22 м.
Битрейт : 2002 Кбит/сек
Ширина : 1024 пикселя
Высота : 576 пикселей
Соотношение сторон : 16:9
Частота кадров : 25,000 кадров/сек
Бит/(Пиксели*Кадры) : 0.136
Размер потока : 328 Мбайт (93%)

Аудио
Идентификатор : 1
Формат : MPEG Audio
Версия формата : Version 1
Профиль формата : Layer 3
Режим : Joint stereo
Расширение режима : MS Stereo
Идентификатор кодека : 55
Идентификатор кодека/Подсказка : MP3
Продолжительность : 22 м.
Вид битрейта : Постоянный
Битрейт : 128 Кбит/сек
Каналы : 2 канала
Частота : 44,1 КГц
Метод сжатия : С потерями
Размер потока : 21,0 Мбайт (6%)
Выравнивание : Соединение по промежуткам
Продолжительность промежутка : 26 мс. (0,65 видеокадр)
Библиотека кодирования : LAME3.98.2

Общее
Полное имя : D:\releases\Гуппи и Пузырики. Сезон 2 [Torrents43.com]\02.11 Удивительный цирк Скампини.avi
Формат : AVI
Формат/Информация : Audio Video Interleave
Размер файла : 277 Мбайт
Продолжительность : 22 м.
Общий поток : 1710 Кбит/сек

Видео
Идентификатор : 0
Формат : MPEG-4 Visual
Профиль формата : Simple@L3
Параметр BVOP формата : Нет
Параметр QPel формата : Нет
Параметр GMC формата : Без точки перехода
Параметр матрицы формата : Default (H.263)
Идентификатор кодека : XVID
Идентификатор кодека/Подсказка : XviD
Продолжительность : 22 м.
Битрейт : 1500 Кбит/сек
Ширина : 640 пикселей
Высота : 480 пикселей
Соотношение сторон : 4:3
Частота кадров : 25,000 кадров/сек
Цветовое пространство : YUV
Субдискретизация насыщенности : 4:2:0
Битовая глубина : 8 бит
Тип развёртки : Прогрессивная
Метод сжатия : С потерями
Бит/(Пиксели*Кадры) : 0.195
Размер потока : 243 Мбайт (88%)
Библиотека кодирования : XviD 1.2.1 (UTC 2008-12-04)

Аудио
Идентификатор : 1
Формат : MPEG Audio
Версия формата : Version 1
Профиль формата : Layer 3
Режим : Joint stereo
Расширение режима : MS Stereo
Идентификатор кодека : 55
Идентификатор кодека/Подсказка : MP3
Продолжительность : 22 м.
Вид битрейта : Постоянный
Битрейт : 192 Кбит/сек
Каналы : 2 канала
Частота : 48,0 КГц
Метод сжатия : С потерями
Размер потока : 31,1 Мбайт (11%)
Выравнивание : Соединение по промежуткам
Продолжительность промежутка : 24 мс. (0,60 видеокадр)
Библиотека кодирования : LAME3.98.2

Общее
Полное имя : D:\releases\Гуппи и Пузырики. Сезон 2 [Torrents43.com]\02.12 Стройка расстройка.avi
Формат : AVI
Формат/Информация : Audio Video Interleave
Размер файла : 352 Мбайт
Продолжительность : 22 м.
Общий поток : 2146 Кбит/сек

Видео
Идентификатор : 0
Формат : mp43
Идентификатор кодека : mp43
Продолжительность : 22 м.
Битрейт : 2002 Кбит/сек
Ширина : 1024 пикселя
Высота : 576 пикселей
Соотношение сторон : 16:9
Частота кадров : 25,000 кадров/сек
Бит/(Пиксели*Кадры) : 0.136
Размер потока : 328 Мбайт (93%)

Аудио
Идентификатор : 1
Формат : MPEG Audio
Версия формата : Version 1
Профиль формата : Layer 3
Режим : Joint stereo
Расширение режима : MS Stereo
Идентификатор кодека : 55
Идентификатор кодека/Подсказка : MP3
Продолжительность : 22 м.
Вид битрейта : Постоянный
Битрейт : 128 Кбит/сек
Каналы : 2 канала
Частота : 44,1 КГц
Метод сжатия : С потерями
Размер потока : 21,0 Мбайт (6%)
Выравнивание : Соединение по промежуткам
Продолжительность промежутка : 26 мс. (0,65 видеокадр)
Библиотека кодирования : LAME3.98.2

Общее
Полное имя : D:\releases\Гуппи и Пузырики. Сезон 2 [Torrents43.com]\02.13 Буль буль кадабра.avi
Формат : AVI
Формат/Информация : Audio Video Interleave
Размер файла : 353 Мбайт
Продолжительность : 22 м.
Общий поток : 2146 Кбит/сек

Видео
Идентификатор : 0
Формат : mp43
Идентификатор кодека : mp43
Продолжительность : 22 м.
Битрейт : 2001 Кбит/сек
Ширина : 1024 пикселя
Высота : 576 пикселей
Соотношение сторон : 16:9
Частота кадров : 25,000 кадров/сек
Бит/(Пиксели*Кадры) : 0.136
Размер потока : 329 Мбайт (93%)

Аудио
Идентификатор : 1
Формат : MPEG Audio
Версия формата : Version 1
Профиль формата : Layer 3
Режим : Joint stereo
Расширение режима : MS Stereo
Идентификатор кодека : 55
Идентификатор кодека/Подсказка : MP3
Продолжительность : 22 м.
Вид битрейта : Постоянный
Битрейт : 128 Кбит/сек
Каналы : 2 канала
Частота : 44,1 КГц
Метод сжатия : С потерями
Размер потока : 21,0 Мбайт (6%)
Выравнивание : Соединение по промежуткам
Продолжительность промежутка : 26 мс. (0,65 видеокадр)
Библиотека кодирования : LAME3.98.2

Общее
Полное имя : D:\releases\Гуппи и Пузырики. Сезон 2 [Torrents43.com]\02.14 Буль буль утята.avi
Формат : AVI
Формат/Информация : Audio Video Interleave
Размер файла : 353 Мбайт
Продолжительность : 22 м.
Общий поток : 2146 Кбит/сек

Видео
Идентификатор : 0
Формат : mp43
Идентификатор кодека : mp43
Продолжительность : 22 м.
Битрейт : 2002 Кбит/сек
Ширина : 1024 пикселя
Высота : 576 пикселей
Соотношение сторон : 16:9
Частота кадров : 25,000 кадров/сек
Бит/(Пиксели*Кадры) : 0.136
Размер потока : 329 Мбайт (93%)

Аудио
Идентификатор : 1
Формат : MPEG Audio
Версия формата : Version 1
Профиль формата : Layer 3
Режим : Joint stereo
Расширение режима : MS Stereo
Идентификатор кодека : 55
Идентификатор кодека/Подсказка : MP3
Продолжительность : 22 м.
Вид битрейта : Постоянный
Битрейт : 128 Кбит/сек
Каналы : 2 канала
Частота : 44,1 КГц
Метод сжатия : С потерями
Размер потока : 21,1 Мбайт (6%)
Выравнивание : Соединение по промежуткам
Продолжительность промежутка : 26 мс. (0,65 видеокадр)
Библиотека кодирования : LAME3.98.2

Общее
Полное имя : D:\releases\Гуппи и Пузырики. Сезон 2 [Torrents43.com]\02.15 Трехколейная гонка.avi
Формат : AVI
Формат/Информация : Audio Video Interleave
Размер файла : 352 Мбайт
Продолжительность : 22 м.
Общий поток : 2145 Кбит/сек

Видео
Идентификатор : 0
Формат : mp43
Идентификатор кодека : mp43
Продолжительность : 22 м.
Битрейт : 2001 Кбит/сек
Ширина : 1024 пикселя
Высота : 576 пикселей
Соотношение сторон : 16:9
Частота кадров : 25,000 кадров/сек
Бит/(Пиксели*Кадры) : 0.136
Размер потока : 329 Мбайт (93%)

Аудио
Идентификатор : 1
Формат : MPEG Audio
Версия формата : Version 1
Профиль формата : Layer 3
Режим : Joint stereo
Расширение режима : MS Stereo
Идентификатор кодека : 55
Идентификатор кодека/Подсказка : MP3
Продолжительность : 22 м.
Вид битрейта : Постоянный
Битрейт : 128 Кбит/сек
Каналы : 2 канала
Частота : 44,1 КГц
Метод сжатия : С потерями
Размер потока : 21,0 Мбайт (6%)
Выравнивание : Соединение по промежуткам
Продолжительность промежутка : 26 мс. (0,65 видеокадр)
Библиотека кодирования : LAME3.98

Общее
Полное имя : D:\releases\Гуппи и Пузырики. Сезон 2 [Torrents43.com]\02.16 Где нос Сфинкса.avi
Формат : AVI
Формат/Информация : Audio Video Interleave
Размер файла : 352 Мбайт
Продолжительность : 22 м.
Общий поток : 2146 Кбит/сек

Видео
Идентификатор : 0
Формат : mp43
Идентификатор кодека : mp43
Продолжительность : 22 м.
Битрейт : 2001 Кбит/сек
Ширина : 1024 пикселя
Высота : 576 пикселей
Соотношение сторон : 16:9
Частота кадров : 25,000 кадров/сек
Бит/(Пиксели*Кадры) : 0.136
Размер потока : 328 Мбайт (93%)

Аудио
Идентификатор : 1
Формат : MPEG Audio
Версия формата : Version 1
Профиль формата : Layer 3
Режим : Joint stereo
Расширение режима : MS Stereo
Идентификатор кодека : 55
Идентификатор кодека/Подсказка : MP3
Продолжительность : 22 м.
Вид битрейта : Постоянный
Битрейт : 128 Кбит/сек
Каналы : 2 канала
Частота : 44,1 КГц
Метод сжатия : С потерями
Размер потока : 21,0 Мбайт (6%)
Выравнивание : Соединение по промежуткам
Продолжительность промежутка : 26 мс. (0,65 видеокадр)
Библиотека кодирования : LAME3.98.2

Общее
Полное имя : D:\releases\Гуппи и Пузырики. Сезон 2 [Torrents43.com]\02.17 Сер Нонни Славный.avi
Формат : AVI
Формат/Информация : Audio Video Interleave
Размер файла : 476 Мбайт
Продолжительность : 22 м.
Общий поток : 2909 Кбит/сек

Видео
Идентификатор : 0
Формат : mp43
Идентификатор кодека : mp43
Продолжительность : 22 м.
Битрейт : 2764 Кбит/сек
Ширина : 1024 пикселя
Высота : 576 пикселей
Соотношение сторон : 16:9
Частота кадров : 25,000 кадров/сек
Бит/(Пиксели*Кадры) : 0.187
Размер потока : 452 Мбайт (95%)

Аудио
Идентификатор : 1
Формат : MPEG Audio
Версия формата : Version 1
Профиль формата : Layer 3
Режим : Joint stereo
Расширение режима : MS Stereo
Идентификатор кодека : 55
Идентификатор кодека/Подсказка : MP3
Продолжительность : 22 м.
Вид битрейта : Постоянный
Битрейт : 128 Кбит/сек
Каналы : 2 канала
Частота : 44,1 КГц
Метод сжатия : С потерями
Размер потока : 21,0 Мбайт (4%)
Выравнивание : Соединение по промежуткам
Продолжительность промежутка : 26 мс. (0,65 видеокадр)
Библиотека кодирования : LAME3.98.2

Общее
Полное имя : D:\releases\Гуппи и Пузырики. Сезон 2 [Torrents43.com]\02.18 Жучки и паучки.avi
Формат : AVI
Формат/Информация : Audio Video Interleave
Размер файла : 352 Мбайт
Продолжительность : 22 м.
Общий поток : 2146 Кбит/сек

Видео
Идентификатор : 0
Формат : mp43
Идентификатор кодека : mp43
Продолжительность : 22 м.
Битрейт : 2002 Кбит/сек
Ширина : 1024 пикселя
Высота : 576 пикселей
Соотношение сторон : 16:9
Частота кадров : 25,000 кадров/сек
Бит/(Пиксели*Кадры) : 0.136
Размер потока : 329 Мбайт (93%)

Аудио
Идентификатор : 1
Формат : MPEG Audio
Версия формата : Version 1
Профиль формата : Layer 3
Режим : Joint stereo
Расширение режима : MS Stereo
Идентификатор кодека : 55
Идентификатор кодека/Подсказка : MP3
Продолжительность : 22 м.
Вид битрейта : Постоянный
Битрейт : 128 Кбит/сек
Каналы : 2 канала
Частота : 44,1 КГц
Метод сжатия : С потерями
Размер потока : 21,0 Мбайт (6%)
Выравнивание : Соединение по промежуткам
Продолжительность промежутка : 26 мс. (0,65 видеокадр)
Библиотека кодирования : LAME3.98.2

Общее
Полное имя : D:\releases\Гуппи и Пузырики. Сезон 2 [Torrents43.com]\02.19 Кудри и хвосты.avi
Формат : AVI
Формат/Информация : Audio Video Interleave
Размер файла : 445 Мбайт
Продолжительность : 21 м.
Общий поток : 2850 Кбит/сек

Видео
Идентификатор : 0
Формат : MPEG-4 Visual
Профиль формата : Simple@L3
Параметр BVOP формата : Нет
Параметр QPel формата : Нет
Параметр GMC формата : Без точки перехода
Параметр матрицы формата : Default (H.263)
Идентификатор кодека : XVID
Идентификатор кодека/Подсказка : XviD
Продолжительность : 21 м.
Битрейт : 2642 Кбит/сек
Ширина : 1024 пикселя
Высота : 576 пикселей
Соотношение сторон : 16:9
Частота кадров : 25,000 кадров/сек
Цветовое пространство : YUV
Субдискретизация насыщенности : 4:2:0
Битовая глубина : 8 бит
Тип развёртки : Прогрессивная
Метод сжатия : С потерями
Бит/(Пиксели*Кадры) : 0.179
Размер потока : 412 Мбайт (93%)
Библиотека кодирования : XviD 1.2.1 (UTC 2008-12-04)

Аудио
Идентификатор : 1
Формат : MPEG Audio
Версия формата : Version 1
Профиль формата : Layer 3
Режим : Joint stereo
Расширение режима : MS Stereo
Идентификатор кодека : 55
Идентификатор кодека/Подсказка : MP3
Продолжительность : 21 м.
Вид битрейта : Постоянный
Битрейт : 192 Кбит/сек
Каналы : 2 канала
Частота : 44,1 КГц
Метод сжатия : С потерями
Размер потока : 30,0 Мбайт (7%)
Выравнивание : Соединение по промежуткам
Продолжительность промежутка : 26 мс. (0,65 видеокадр)
Библиотека кодирования : LAME3.98.2

Дополнительные скриншоты

Скриншоты:


Гуппи и Пузырики / Bubble Guppies на Torrents43.com

Смотреть Online

http://moonwalk.cc/serial/3df611377de946f8964abac4fbc203c1/iframe
Детали торрента:
Название:Гуппи и Пузырики / Bubble Guppies (2011-2013) SATRip (2 сезон, 19 серий из 19)
Дата добавления:03 Ноя 2013 14:26:44
Размер:6,38 GB
Раздают:7
Качают:0
Форум:Зарубежные Мультсериалы

All rights reserved © 2015-2018