TORRENTS43.COM

Скачать Машина Времени - The Таймашин. Рождение эпохи (2012) DVDRip


Машина Времени - The Таймашин. Рождение эпохи (2012) DVDRip
Режиссер / Телекомпания: Максим Капитановский
Год выпуска: 2012
Жанр: Документальный

Описание:
Уникальный документальный фильм 2012-го года режиссёра Максима Капитановского.
Демонстрировался всего один раз, в январе 2012 года в Доме Кино.
Режиссер, писатель и музыкант Максим Капитановский приходил в «Машину» дважды: в начале 70-х он играл в группе на барабанах (присоединившись к неизвестной тогда команде после гремевшего по Москве «Второго дыхания»), а в 1983–1994 годах работал в уже знаменитой «Машине» звукорежиссером.
В течение трех лет он появлялся с камерой практически на каждом московском концерте «Машины», снимая и на сцене, и за кулисами, и понятно, что ему машинисты рассказывали то, чего никому никогда не рассказывали.
По словам автора, «там важны не история и хронология, а философия. Вот как такое могло случиться, что никому не известные ребята сумели породить настолько мощную волну?».

Участники: Андрей Макаревич, Александр Кутиков, Евгений Маргулис, Андрей Державин, Валерий Ефремов, Владимир Сапунов, Иван Макаревич, Борис Квасников, Игорь Краснов, Сергей Куслапу, Елена Мухина, Валерий Глазунов, Дмитрий Подоба, Пётр Петинати, Егор Свинцицкий, Гоша Капитановский

Продолжительность: 02:05:49
Качество видео: DVDRip

Видеокодек: Xvid
Битрейт видео: ~2094 kb/s
Размер кадра: 720 x 400
Аудиокодек: AC3 2.0 ch
Битрейт аудио: 192 kb/s

MediaInfo

Общее
Формат : AVI
Формат/Информация : Audio Video Interleave
Профиль формата : OpenDML
Размер файла : 2,02 Гбайт
Продолжительность : 2 ч. 5 м.
Общий поток : 2297 Кбит/сек
Программа кодирования : VirtualDubMod 1.5.10.3 | www.virtualdub-fr.org || (build 2550/release)
Библиотека кодирования : VirtualDubMod build 2550/release

Видео
Идентификатор : 0
Формат : MPEG-4 Visual
Профиль формата : Advanced Simple@L5
Параметр BVOP формата : 1
Параметр QPel формата : Нет
Параметр GMC формата : Без точки перехода
Параметр матрицы формата : Default (H.263)
Идентификатор кодека : XVID
Идентификатор кодека/Подсказка : XviD
Продолжительность : 2 ч. 5 м.
Битрейт : 2094 Кбит/сек
Ширина : 720 пикселей
Высота : 400 пикселей
Соотношение сторон : 16:9
Частота кадров : 25,000 кадров/сек
Цветовое пространство : YUV
Субдискретизация насыщенности : 4:2:0
Битовая глубина : 8 бит
Тип развёртки : Прогрессивная
Метод сжатия : С потерями
Бит/(Пиксели*Кадры) : 0.291
Размер потока : 1,84 Гбайт (91%)
Библиотека кодирования : XviD 1.2.1 (UTC 2008-12-04)

Аудио
Идентификатор : 1
Формат : AC-3
Формат/Информация : Audio Coding 3
Расширение режима : CM (complete main)
Параметр Endianness формата : Big
Идентификатор кодека : 2000
Продолжительность : 2 ч. 4 м.
Вид битрейта : Постоянный
Битрейт : 192 Кбит/сек
Каналы : 2 канала
Расположение каналов : Front: L R
Частота : 48,0 КГц
Битовая глубина : 16 бит
Метод сжатия : С потерями
Размер потока : 171 Мбайт (8%)
Выравнивание : Разделение по промежуткам
Продолжительность промежутка : 40 мс. (1,01 видеокадр)
Время предзагрузки промежутка : 500 мс.
Скриншоты:


Детали торрента:
Название:Машина Времени - The Таймашин. Рождение эпохи (2012) DVDRip
Дата добавления:28 Июл 2013 12:46:25
Размер:2,02 GB
Раздают:1
Качают:0
Форум:Личности в истории

All rights reserved © 2015-2018