TORRENTS43.COM

Скачать Казанский кафедральный собор (2005) DVDRip


Казанский кафедральный собор (2005) DVDRip
Режиссер: А. Павлович
Год выпуска: 2005
Жанр: Документальный

Описание:
Прошлое и настоящее Казанского кафедрального собора

Продолжительность: 01:09:23
Качество видео: DVDRip

Видеокодек: Xvid
Битрейт видео: ~1393 Кбит/сек
Размер кадра: 720/540
Аудиокодек: MP3
Битрейт аудио: 128 Кбит/сек, 48,0 КГц

M.I.

Общее
Полное имя : H:\Казанский кафедральный собор.avi
Формат : AVI
Формат/Информация : Audio Video Interleave
Размер файла : 761 Мбайт
Продолжительность : 1 ч. 9 м.
Общий поток : 1533 Кбит/сек
Программа кодирования : MEncoder 2:1.0~rc2-0ubuntu13
Библиотека кодирования : MPlayer

Видео
Идентификатор : 0
Формат : MPEG-4 Visual
Профиль формата : Advanced Simple@L5
Параметр BVOP формата : 2
Параметр QPel формата : Нет
Параметр GMC формата : Без точки перехода
Параметр матрицы формата : Default (MPEG)
Идентификатор кодека : XVID
Идентификатор кодека/Подсказка : XviD
Продолжительность : 1 ч. 9 м.
Битрейт : 1393 Кбит/сек
Ширина : 720 пикс.
Высота : 540 пикс.
Соотношение сторон : 4:3
Частота кадров : 25,000 кадр/сек
Цветовое пространство : YUV
Подвыборка цветности : 4:2:0
Битовая глубина : 8 бит
Тип развёртки : Прогрессивная
Метод сжатия : С потерями
Бит/(Пиксели*Кадры) : 0.143
Размер потока : 691 Мбайт (91%)
Библиотека кодирования : XviD 1.1.2 (UTC 2006-11-01)

Аудио
Идентификатор : 1
Формат : MPEG Audio
Версия формата : Version 1
Профиль формата : Layer 3
Идентификатор кодека : 55
Идентификатор кодека/Подсказка : MP3
Продолжительность : 1 ч. 9 м.
Вид битрейта : Постоянный
Битрейт : 128 Кбит/сек
Каналы : 2 канала
Частота : 48,0 КГц
Метод сжатия : С потерями
Задержка видео : 40 мс.
Размер потока : 63,5 Мбайт (8%)
Выравнивание : Соединение по промежуткам
Продолжительность промежутка : 24 мс. (0,60 видеокадр)
Время предзагрузки промежутка : 504 ms
Скриншоты:


Детали торрента:
Название:Казанский кафедральный собор (2005) DVDRip
Дата добавления:03 Авг 2013 08:57:32
Размер:761 MB
Раздают:
Качают:0
Форум:Религии и культы

All rights reserved © 2015-2018