TORRENTS43.COM

Скачать С кошки всё и началось (1982) DVB


С кошки всё и началось (1982) DVB
Год выпуска: 1982
Жанр: Детский

Описание фильма:
По мотивам повести Юрия Томина "Нынче всё наоборот". А началось все с того, что ребятам надоело жить по правилам - туда не ходи, то не делай.. И решили они все делать так, как им самим хочется. А если уж чего не хочется - то не делать вообще. И учителя и родители просто за голову схватились - катастрофа! Но мудрая наука педагогика и тут нашла выход. Нужно просто показать, к чему такое поведение приводит. И для этого был вызван специально приглашенный артист...

Режиссер: Юрий Оксаченко
Актеры: Сережа Алексеев, Алеша Поспелов, Лена Шабалина, Светлана Суховей, Анатолий Грачев, Юрий Николаев, Любовь Румянцева, Евгений Крыжановский, Римма Маркова, Виктор Ильичев



Продолжительность: 01:12:26
Качество видео: DVB

Видео: MPEG 2, 720x576 (4:3), 25.000 fps, 5 000 Kbps (0.338 bit/pixel)
Аудио: MP2, 48.0 KHz, 2 ch, 192 Kbps, CBR

МедиаИнфо:

Видео
Идентификатор : 224 (0xE0)
Формат : MPEG Video
Версия формата : Version 2
Профиль формата : Main@Main
Параметр BVOP формата : Да
Параметр матрицы формата : Выборочная
Параметр GOP формата : M=3, N=12
Продолжительность : 1 ч. 12 м.
Вид битрейта : Переменный
Битрейт : 3507 Кбит/сек
Максимальный битрейт : 5000 Кбит/сек
Ширина : 720 пикселей
Высота : 576 пикселей
Соотношение сторон : 4:3
Частота кадров : 25,000 кадров/сек
Стандарт вещания : PAL
Цветовое пространство : YUV
Субдискретизация насыщенности : 4:2:0
Битовая глубина : 8 бит
Тип развёртки : Чересстрочная
Порядок развёртки : Верхнее поле первое
Метод сжатия : С потерями
Бит/(Пиксели*Кадры) : 0.338
Размер потока : 1,77 Гбайт (93%)

Аудио
Идентификатор : 192 (0xC0)
Формат : MPEG Audio
Версия формата : Version 1
Профиль формата : Layer 2
Продолжительность : 1 ч. 12 м.
Вид битрейта : Постоянный
Битрейт : 192 Кбит/сек
Каналы : 2 канала
Частота : 48,0 КГц
Метод сжатия : С потерями
Размер потока : 99,5 Мбайт (5%)
Скриншоты:




Детали торрента:
Название:С кошки всё и началось (1982) DVB
Дата добавления:17 Авг 2013 00:38:47
Размер:1,91 GB
Раздают:
Качают:0
Форум:Отечественные Фильмы для детей

All rights reserved © 2015-2018