TORRENTS43.COM

Скачать Legba's Mojo - Legba's Mojo (2013) [FLAC|Lossless]<Blues-Rock, Hard Rock>


Legba's Mojo - Legba's Mojo (2013)
Год: 2013
Жанр: Blues-Rock, Hard Rock
Лейбл: Great White Records. Made in Canada.
Каталог #: 884501941884
Продолжительность: 00:50:51
Кодек: FLAC
Тип рипа: image + .cue
Битрейт: Lossless
Треклист:
01. Presence (1:53)
02. How Can You Do It? (5:52)
03. Youtube Myspace (5:03)
04. California (5:09)
05. Devil With A Halo (3:12)
06. I Am The Man (4:07)
07. Train Train (3:56)
08. Hemi Love (4:44)
09. Girl Beneath The Skin (2:56)
10. I'm The Disease (3:51)
11. Dirty Little Girl (3:03)
12. Sundown To September (4:09)
13. Hold On Tight (2:56)

Отчёт ЕАС:

Код:

Exact Audio Copy V1.0 beta 3 from 29. August 2011

Отчёт EAC об извлечении, выполненном 24. августа 2013, 9:46

Legba's Mojo / Legba's Mojo

Дисковод: PLEXTOR DVDR   PX-880SA   Adapter: 1  ID: 0

Режим чтения                 : Достоверность
Использование точного потока : Да
Отключение кэша аудио        : Да
Использование указателей C2  : Нет

Коррекция смещения при чтении                     : 6
Способность читать области Lead-in и Lead-out     : Нет
Заполнение пропущенных сэмплов тишиной            : Да
Удаление блоков с тишиной в начале и конце        : Нет
При вычислениях CRC использовались нулевые сэмплы : Да
Интерфейс                                         : Установленный внешний ASPI-интерфейс

Выходной формат          : Пользовательский кодировщик
Выбранный битрейт        : 1024 kBit/s
Качество                 : Высокий
Добавление ID3-тега      : Нет
Утилита сжатия           : C:\Program Files\Exact Audio Copy\FLAC\FLAC.EXE
Дополнительные параметры : -10 -V -T "ARTIST=%artist%" -T "TITLE=%title%" -T "ALBUM=%albumtitle%" -T "DATE=%year%" -T "TRACKNUMBER=%tracknr%" -T "GENRE=%genre%" -T "COMMENT=%comment%" -T "BAND=%albuminterpret%" -T "ALBUMARTIST=%albuminterpret%" -T "COMPOSER=%composer%" %haslyrics%--tag-from-file=LYRICS="%lyricsfile%"%haslyrics% -T "DISCNUMBER=%cdnumber%" -T "TOTALDISCS=%totalcds%" -T "TOTALTRACKS=%numtracks%" %hascover%--picture="%coverfile%"%hascover% %source% -o %dest%

TOC извлечённого CD

     Трек |   Старт  | Длительность | Начальный сектор | Конечный сектор
    ---------------------------------------------------------------------
       1  |  0:00.00 |    1:53.17   |           0      |       8491
       2  |  1:53.17 |    5:51.46   |        8492      |      34862
       3  |  7:44.63 |    5:03.28   |       34863      |      57615
       4  | 12:48.16 |    5:09.09   |       57616      |      80799
       5  | 17:57.25 |    3:11.41   |       80800      |      95165
       6  | 21:08.66 |    4:06.43   |       95166      |     113658
       7  | 25:15.34 |    3:56.21   |      113659      |     131379
       8  | 29:11.55 |    4:44.08   |      131380      |     152687
       9  | 33:55.63 |    2:56.17   |      152688      |     165904
      10  | 36:52.05 |    3:51.00   |      165905      |     183229
      11  | 40:43.05 |    3:02.74   |      183230      |     196953
      12  | 43:46.04 |    4:08.48   |      196954      |     215601
      13  | 47:54.52 |    2:55.67   |      215602      |     228793

Характеристики диапазона извлечения и сообщения об ошибках

Выбранный диапазон

     Имя файла D:\BitComet\Legba's Mojo - Legba's Mojo(2013)(flac)\Legba's Mojo - Legba's Mojo.wav

     Пиковый уровень 100.0 %
     Скорость извлечения 4.5 X
     Качество диапазона 100.0 %
     CRC теста 8F794BD6
     CRC копии 8F794BD6
     Копирование... OK

Ошибок не произошло

AccurateRip: сводка

Трек  1  отсутствует в базе данных
Трек  2  отсутствует в базе данных
Трек  3  отсутствует в базе данных
Трек  4  отсутствует в базе данных
Трек  5  отсутствует в базе данных
Трек  6  отсутствует в базе данных
Трек  7  отсутствует в базе данных
Трек  8  отсутствует в базе данных
Трек  9  отсутствует в базе данных
Трек 10  отсутствует в базе данных
Трек 11  отсутствует в базе данных
Трек 12  отсутствует в базе данных
Трек 13  отсутствует в базе данных

Ни одного трека нет в базе AccurateRip

Конец отчёта

==== Контрольная сумма отчёта 742D4F41509E314A8E70F44CB7D80DA9DFBA216A692E536E372BAF86899D022C ====

Отчёт auCDtect Task manager:

Код:

-----------------------

DON'T MODIFY THIS FILE

-----------------------

PERFORMER: auCDtect Task Manager, ver. 1.6.0 RC1 build 1.6.0.1
Copyright (c) 2008-2010 y-soft. All rights reserved
http://y-soft.org

ANALYZER: auCDtect: CD records authenticity detector, version 0.8.2
Copyright (c) 2004 Oleg Berngardt. All rights reserved.
Copyright (c) 2004 Alexander Djourik. All rights reserved.

FILE: Legba's Mojo - Legba's Mojo.flac
  Size: 404048734 Hash: 48523F5C36BB85EC0C134DFE108D20F7 Accuracy: -m0
  Conclusion: CDDA 100%
  Signature: 1CB0501C9280B3D82ABCC76010260995FD1BA613

Содержание индексной карты (.CUE)

Код:

REM GENRE "Hard Rock"
REM DATE 2013
REM DISCID AD0BEA0D
REM COMMENT "ExactAudioCopy v1.0b3"
PERFORMER "Legba's Mojo"
TITLE "Legba's Mojo"
FILE "Legba's Mojo - Legba's Mojo.flac" WAVE
  TRACK 01 AUDIO
    TITLE "Presence"
    PERFORMER "Legba's Mojo"
    INDEX 01 00:00:00
  TRACK 02 AUDIO
    TITLE "How Can You Do It?"
    PERFORMER "Legba's Mojo"
    INDEX 00 01:51:17
    INDEX 01 01:53:17
  TRACK 03 AUDIO
    TITLE "Youtube Myspace"
    PERFORMER "Legba's Mojo"
    INDEX 00 07:42:63
    INDEX 01 07:44:63
  TRACK 04 AUDIO
    TITLE "California"
    PERFORMER "Legba's Mojo"
    INDEX 00 12:46:16
    INDEX 01 12:48:16
  TRACK 05 AUDIO
    TITLE "Devil With A Halo"
    PERFORMER "Legba's Mojo"
    INDEX 00 17:55:25
    INDEX 01 17:57:25
  TRACK 06 AUDIO
    TITLE "I Am The Man"
    PERFORMER "Legba's Mojo"
    INDEX 00 21:06:66
    INDEX 01 21:08:66
  TRACK 07 AUDIO
    TITLE "Train Train"
    PERFORMER "Legba's Mojo"
    INDEX 00 25:13:34
    INDEX 01 25:15:34
  TRACK 08 AUDIO
    TITLE "Hemi Love"
    PERFORMER "Legba's Mojo"
    INDEX 00 29:09:55
    INDEX 01 29:11:55
  TRACK 09 AUDIO
    TITLE "Girl Beneath The Skin"
    PERFORMER "Legba's Mojo"
    INDEX 00 33:53:63
    INDEX 01 33:55:63
  TRACK 10 AUDIO
    TITLE "I'm The Disease"
    PERFORMER "Legba's Mojo"
    INDEX 00 36:50:05
    INDEX 01 36:52:05
  TRACK 11 AUDIO
    TITLE "Dirty Little Girl"
    PERFORMER "Legba's Mojo"
    INDEX 00 40:41:05
    INDEX 01 40:43:05
  TRACK 12 AUDIO
    TITLE "Sundown To September"
    PERFORMER "Legba's Mojo"
    INDEX 00 43:44:04
    INDEX 01 43:46:04
  TRACK 13 AUDIO
    TITLE "Hold On Tight"
    PERFORMER "Legba's Mojo"
    INDEX 00 47:52:52
    INDEX 01 47:54:52

Сверка с АккуратРип

Код:

[CUETools log; Date: 10.09.2013 22:36:47; Version: 2.1.4]
[CTDB TOCID: AEI2u5Pm4MKuzqRI6o8SyZIP_m4-] disk not present in database.
[AccurateRip ID: 0019687d-00fd2be9-ad0bea0d] found.
Track   [  CRC   |   V2   ] Status
 01     [e951673e|a58916ef] (0+1/1) Accurately ripped
 02     [2629d623|f9d69473] (0+1/1) Accurately ripped
 03     [a685d4a2|53374f79] (0+1/1) Accurately ripped
 04     [58831ee3|f77d5d7b] (0+1/1) Accurately ripped
 05     [8e7b3ea6|2ebb9a4a] (0+1/1) Accurately ripped
 06     [43c9c6ca|84d53222] (0+1/1) Accurately ripped
 07     [1e81bfdd|a5df8273] (0+1/1) Accurately ripped
 08     [4b21d2c7|3fc3c061] (0+1/1) Accurately ripped
 09     [234231a3|3df74a18] (0+1/1) Accurately ripped
 10     [30a05c9b|42bb1dab] (0+1/1) Accurately ripped
 11     [2b7492ab|055b1d89] (0+1/1) Accurately ripped
 12     [3080dfd3|fd078c05] (0+1/1) Accurately ripped
 13     [c9f47ec0|3528b095] (0+1/1) Accurately ripped

Track Peak [ CRC32  ] [W/O NULL] [  LOG   ]
 --  100,0 [8F794BD6] [6CFBBA37]   CRC32
 01  100,0 [41B1BCE8] [543DF6CA]
 02  100,0 [01594301] [5D0D6BFE]
 03  100,0 [6C113BA0] [56DA17BA]
 04  100,0 [153F0748] [81884686]
 05  100,0 [172D58B2] [87955E51]
 06  100,0 [8A9506AD] [35640578]
 07  100,0 [E2A08E9F] [5EDF0F55]
 08  100,0 [DC101E18] [0A453990]
 09  100,0 [9E89020D] [88153363]
 10  100,0 [A837C5B5] [70355150]
 11  100,0 [2043AB83] [8A0B1121]
 12  100,0 [F3E85112] [A7993E42]
 13  100,0 [326EC2A3] [DE9B91AB]

Детали торрента:
Название:Legba's Mojo - Legba's Mojo (2013) [FLAC|Lossless]<Blues-Rock, Hard Rock>
Дата добавления:10 Сен 2013 21:38:33
Размер:403 MB
Раздают:2
Качают:0
Форум:Hard Rock (Lossless)

All rights reserved © 2015-2018