TORRENTS43.COM

Скачать Мимо окон идут поезда (1965) SATRip


Мимо окон идут поезда (1965) SATRip
Год выпуска: 1965
Жанр: Драма, Семейный

Описание фильма:
Кого мы растим и как растим — вот смысловой подтекст этой картины. Что получится из Сани Зенкова, Геннадия, Юрки, Мухомора и других воспитанников интерната? Ведь как легко отравить их ядом бюрократизма, заложить в них фундамент «чиновной души», посеять недоверие и скепсис. Директор интерната невольно преподал им «уроки» ханжества и бездушия. И теперь так трудно им найти душевный контакт с Лидией Сергеевной, новой учительницей, бесхитростным, живым, светлым человеком. Но учитель должен понимать своего ученика и, если что, вовремя протянуть ему руку помощи…

Режиссер: Эдуард Гаврилов, Валерий Кремнев
Актеры: Мария Стерникова, Виктор Косых, Боря Кузнецов, Лида Волкова, Лев Круглый, Элла Некрасова, Сергей Яковлев, Инна Выходцева, Клавдия Хабарова, Валентина Ананьина, Валентина Владимирова, Зоя Исаева, Юрий Киреев, Лидия Королёва, Михаил Метелкин, Роман Хомятов, Дмитрий Князев, Татьяна Корзинкина, Владимир Чевелев

Продолжительность: 01:31:49
Качество видео: SATRip



Видеокодек: Xvid
Битрейт видео: ~1800 Кбит/сек
Размер кадра: 688x496
Аудиокодек: MP3, 2 ch
Битрейт аудио: 128 Кбит/сек

MediaInfo:

Общее
Полное имя : W:\Мимо окон идут поезда (1965) SATRip.avi
Формат : AVI
Формат/Информация : Audio Video Interleave
Размер файла : 1,24 Гбайт
Продолжительность : 1 ч. 31 м.
Общий поток : 1938 Кбит/сек
Программа кодирования : VirtualDubMod 1.5.10.2 (build 2540/release)
Библиотека кодирования : Boilsoft AVI tool build 30012/release

Видео
Идентификатор : 0
Формат : MPEG-4 Visual
Профиль формата : Advanced Simple@L5
Параметр BVOP формата : 2
Параметр QPel формата : Нет
Параметр GMC формата : Без точки перехода
Параметр матрицы формата : Default (MPEG)
Режим смешивания : Сжатый битовый поток
Идентификатор кодека : XVID
Идентификатор кодека/Подсказка : XviD
Продолжительность : 1 ч. 31 м.
Битрейт : 1800 Кбит/сек
Ширина : 688 пикселей
Высота : 496 пикселей
Соотношение сторон : 1,387
Частота кадров : 25,000 кадров/сек
Цветовое пространство : YUV
Субдискретизация насыщенности : 4:2:0
Битовая глубина : 8 бит
Тип развёртки : Прогрессивная
Метод сжатия : С потерями
Бит/(Пиксели*Кадры) : 0.211
Размер потока : 1,15 Гбайт (93%)
Библиотека кодирования : XviD 1.1.2 (UTC 2006-11-01)

Аудио
Идентификатор : 1
Формат : MPEG Audio
Версия формата : Version 1
Профиль формата : Layer 3
Режим : Joint stereo
Расширение режима : MS Stereo
Идентификатор кодека : 55
Идентификатор кодека/Подсказка : MP3
Продолжительность : 1 ч. 31 м.
Вид битрейта : Постоянный
Битрейт : 128 Кбит/сек
Каналы : 2 канала
Частота : 48,0 КГц
Метод сжатия : С потерями
Размер потока : 84,1 Мбайт (7%)
Выравнивание : Соединение по промежуткам
Продолжительность промежутка : 40 мс. (1,00 видеокадр)
Время предзагрузки промежутка : 504 мс.
Скриншоты:




Все одноименные релизы в клубе

Детали торрента:
Название:Мимо окон идут поезда (1965) SATRip
Дата добавления:29 Сен 2013 23:11:33
Размер:1,24 GB
Раздают:
Качают:0
Форум:Отечественные Фильмы для детей

All rights reserved © 2015-2018