TORRENTS43.COM

Скачать Прощание с Петербургом (1971) DVDRip


Прощание с Петербургом (1971) DVDRip
Год выпуска: 1971
Жанр: Мелодрама, Музыкальный

Описание фильма:
О пребывании в России австрийского композитора Иоганна Штрауса, его концертном сезоне в Павловске летом 1857 года и любви к русской аристократке Ольге Смирницкой, которой он посвятил несколько сочинений.

Режиссер: Ян Фрид
Актеры: Гирт Яковлев, Татьяна Бедова, Татьяна Пилецкая, Василий Меркурьев, Павел Кадочников, Игорь Дмитриев, Сергей Карнович-Валуа, Александр Романцов

Продолжительность: 01:32:23
Качество видео: DVDRip



Видеокодек: DivX 5
Битрейт видео: ~899 Kbps
Размер кадра: 720 x 336
Аудиокодек: MP3, 2ch
Битрейт аудио: 128 kbps

MediaInfo

General
Complete name : \\\\\Farewell.St. Petersburg.DVDRip.avi
Format : AVI
Format/Info : Audio Video Interleave
File size : 685 MiB
Duration : 1h 32mn
Overall bit rate : 1 037 Kbps

Video
ID : 0
Format : MPEG-4 Visual
Format settings, BVOP : 1
Format settings, QPel : No
Format settings, GMC : No warppoints
Format settings, Matrix : Default (H.263)
Muxing mode : Packed bitstream
Codec ID : DX50
Codec ID/Hint : DivX 5
Duration : 1h 32mn
Bit rate : 899 Kbps
Width : 720 pixels
Height : 336 pixels
Display aspect ratio : 2.143
Frame rate : 25.000 fps
Color space : YUV
Chroma subsampling : 4:2:0
Bit depth : 8 bits
Scan type : Progressive
Compression mode : Lossy
Bits/(Pixel*Frame) : 0.149
Stream size : 594 MiB (87%)
Title : Video
Writing library : DivX 2682

Audio
ID : 1
Format : MPEG Audio
Format version : Version 1
Format profile : Layer 3
Mode : Joint stereo
Codec ID : 55
Codec ID/Hint : MP3
Duration : 1h 32mn
Bit rate mode : Constant
Bit rate : 128 Kbps
Channel(s) : 2 channels
Sampling rate : 48.0 KHz
Compression mode : Lossy
Stream size : 84.6 MiB (12%)
Alignment : Split accross interleaves
Interleave, duration : 40 ms (1.00 video frame)
Interleave, preload duration : 500 ms
Title : Audio - en-US01
Скриншоты:




Детали торрента:
Название:Прощание с Петербургом (1971) DVDRip
Дата добавления:04 Окт 2013 20:31:16
Размер:685 MB
Раздают:
Качают:0
Форум:Старые Отечественные Фильмы (HD*Rip/LQ, DVDRip, SATRip, VHSRip)

All rights reserved © 2015-2018