TORRENTS43.COM

Скачать Мерзлая земля / The Frozen Ground (2013) BDRip [1080p] ATV


Мерзлая земля / The Frozen Ground (2013) BDRip [1080p] ATV
«Охотник становится жертвой»

Год выпуска: 2011
Страна: США
Жанр: триллер, криминал, биография
Продолжительность: 01:45:34

Перевод: Профессиональный (дублированный)
Оригинальная аудиодорожка: Есть
Cубтитры: Русские, Английские
Режиссёр: Скотт Уокер
Сценарий: Скотт Уокер
Продюсер: Ремингтон Чейз, Рэндолл Эмметт, Джейн Флеминг
Оператор: Патрик Мургуйя
Композитор: Лорн Бэлф
Художник: Кларк Хантер, Линн Фалконер, Моника Шампейн
Монтаж: Сара Бойд
В ролях: Николас Кейдж, Джон Кьюсак, Ванесса Энн Хадженс, Дин Норрис, Джина Мантенья, Роберт Форджит, Брэд Хенке, Майкл МакГрэйди, Кэтрин ЛаНаса, Райан О’Нан

Бюджет: $27 220 000
Сборы в России: $784 993

Мировая премьера: 11 июля 2013
Премьера (РФ): 25 июля 2013, «Парадиз»

Релиз на DVD: 8 октября 2013, «Парадиз / Активижен»
Релиз на Blu-Ray: 22 октября 2013, «Парадиз / Активижен»



Описание: Все были уверены, что Роберт Хансен — приличный семьянин, владелец пекарни и славный охотник. Никто не подозревал, что на самом деле он — безжалостный маньяк, который похитил и убил более двадцати женщин. И только 17-летней Синди Полсон удалось сбежать от убийцы. Она наводит на след маньяка полицейского, который начинает опасное расследование. Ему никто не верит: Хансен — слишком приличный человек для такого обвинения… Но упорный коп знает свое дело и должен дойти до конца…
Качество исходника: BDRemux
Качество: BDRip
Тип: HD (1080p)
Контейнер: M4V
Видео: H.264, 1920x800, 2.40:1, 8 000 Kbps, 23.976 fps

Аудио 1: Русский/Профессиональный (дублированный) , AAC / 2.0 / 192 Kbps / 48.0 KHz
Аудио 2: Английский/Оригинальная дорожка , AAC / 2.0 / 192 Kbps / 48.0 KHz
Аудио 3: Русский/Профессиональный (дублированный) , AC-3 / 5.1 / 384 Kbps / 48.0 KHz
Аудио 4: Английский/Оригинальная дорожка , AC-3 / 5.1 / 640 Kbps / 48.0 KHz

Язык субтитров: Русский, английский
Вид субтитров: Вшитые (полные, отключаемые)

iTunes Meta Tags

Код:

XID: Apple:vendor_id:2013-601483
contentID: 674991736
Screenwriters: Скотт Уокер
Producers: Ремингтон Чейз, Рэндолл Эмметт, Джейн Флеминг
Director: Скотт Уокер
Cast: Николас Кейдж, Джон Кьюсак, Фифти Сент, Ванесса Энн Хадженс, Рада Митчелл, Дин Норрис, Кэтрин ЛаНаса, Джоди Лин О’Кифи, Мэтт Джералд, Джина Мантенья
Rating: 5
Long Description: Все были уверены, что Роберт Хансен — приличный семьянин, владелец пекарни и славный охотник. Никто не подозревал, что на самом деле он — безжалостный маньяк, который похитил и убил более двадцати женщин. И только 17-летней Синди Полсон удалось сбежать от убийцы. Она наводит на след маньяка полицейского, который начинает опасное расследование. Ему никто не верит: Хансен — слишком приличный человек для такого обвинения… Но упорный коп знает свое дело и должен дойти до конца…
Description: Все были уверены, что Роберт Хансен — приличный семьянин, владелец пекарни и славный охотник. Никто не подозревал, что на самом деле он — безжалостный маньяк, который похитил и убил более двадцати женщин
Release Date: 2013-07-11T15:00:00Z
Genre: Thriller
Artist: Scott Walker
Name: The Frozen Ground

MediaInfo

Код:

General
Complete name                            : /Users/imac/HandBrake/The Frozen Ground (HD).m4v
Format                                   : MPEG-4
Codec ID                                 : M4V
File size                                : 6.94 GiB
Duration                                 : 1h 45mn
Overall bit rate mode                    : Variable
Overall bit rate                         : 9 414 Kbps
Movie name                               : The Frozen Ground
Performer                                : Scott Walker
Genre                                    : Thriller
Recorded date                            : UTC 2013-07-11 15:00:00
Encoded date                             : UTC 2013-10-16 19:19:08
Tagged date                              : UTC 2013-10-16 19:24:34
Cover                                    : Yes / Yes / Yes
desc                                     : Все были уверены, что Роберт Хансен — приличный семьянин, владелец пекарни и славный охотник. Никто не подозревал, что на самом деле он — безжалостный маньяк, который похитил и убил более двадцати женщин
ldes                                     : Все были уверены, что Роберт Хансен — приличный семьянин, владелец пекарни и славный охотник. Никто не подозревал, что на самом деле он — безжалостный маньяк, который похитил и убил более двадцати женщин. И только 17-летней Синди Полсон удалось сбежать от убийцы. Она наводит на след маньяка полицейского, который начинает опасное расследование. Ему никто не верит: Хансен — слишком приличный человек для такого обвинения… Но упорный коп знает свое дело и должен дойти до конца…
hdvd                                     : 2
stik                                     : 9
rtng                                     : 0
cnID                                     : 674991736
xid                                      : Apple:vendor_id:2013-601483
iTunEXTC                                 : mpaa|R|400|
iTunMOVI                                 : <?xml version=\"1.0\" encoding=\"UTF-8\"?> / <!DOCTYPE plist PUBLIC \"-//Apple//DTD PLIST 1.0//EN\" \"http://www.apple.com/DTDs/PropertyList-1.0.dtd\"> / <plist version=\"1.0\"> / <dict> /   <key>cast</key> /   <array> /     <dict> /       <key>name</key> /       <string>Николас Кейдж</string> /     </dict> /     <dict> /       <key>name</key> /       <string>Джон Кьюсак</string> /     </dict> /     <dict> /       <key>name</key> /       <string>Фифти Сент</string> /     </dict> /     <dict> /       <key>name</key> /       <string>Ванесса Энн Хадженс</string> /     </dict> /     <dict> /       <key>name</key> /       <string>Рада Митчелл</string> /     </dict> /     <dict> /       <key>name</key> /       <string>Дин Норрис</string> /     </dict> /     <dict> /       <key>name</key> /       <string>Кэтрин ЛаНаса</string> /     </dict> /     <dict> /       <key>name</key> /       <string>Джоди Лин О’Кифи</string> /     </dict> /     <dict> /       <key>name</key> /       <string>Мэтт Джералд</string> /     </dict> /     <dict> /       <key>name</key> /       <string>Джина Мантенья</string> /     </dict> /   </array> /   <key>directors</key> /   <array> /     <dict> /       <key>name</key> /       <string>Скотт Уокер</string> /     </dict> /   </array> /   <key>producers</key> /   <array> /     <dict> /       <key>name</key> /       <string>Ремингтон Чейз</string> /     </dict> /     <dict> /       <key>name</key> /       <string>Рэндолл Эмметт</string> /     </dict> /     <dict> /       <key>name</key> /       <string>Джейн Флеминг</string> /     </dict> /   </array> /   <key>screenwriters</key> /   <array> /     <dict> /       <key>name</key> /       <string>Скотт Уокер</string> /     </dict> /   </array> / </dict> / </plist>

Video #1
ID                                       : 1
Format                                   : AVC
Format/Info                              : Advanced Video Codec
Format profile                           : High@L4.0
Format settings, CABAC                   : Yes
Format settings, ReFrames                : 4 frames
Codec ID                                 : avc1
Codec ID/Info                            : Advanced Video Coding
Duration                                 : 1h 45mn
Bit rate mode                            : Variable
Bit rate                                 : 8 000 Kbps
Width                                    : 1 920 pixels
Height                                   : 800 pixels
Display aspect ratio                     : 2.40:1
Frame rate mode                          : Variable
Frame rate                               : 23.976 fps
Minimum frame rate                       : 23.810 fps
Maximum frame rate                       : 24.272 fps
Color space                              : YUV
Chroma subsampling                       : 4:2:0
Bit depth                                : 8 bits
Scan type                                : Progressive
Bits/(Pixel*Frame)                       : 0.217
Stream size                              : 5.90 GiB (85%)
Writing library                          : x264 core 130 r2273 b3065e6
Encoding settings                        : cabac=1 / ref=4 / deblock=1:0:0 / analyse=0x3:0x113 / me=umh / subme=9 / psy=1 / psy_rd=1.00:0.00 / mixed_ref=1 / me_range=32 / chroma_me=1 / trellis=1 / 8x8dct=1 / cqm=0 / deadzone=21,11 / fast_pskip=1 / chroma_qp_offset=-2 / threads=12 / lookahead_threads=1 / sliced_threads=0 / nr=0 / decimate=1 / interlaced=0 / bluray_compat=0 / constrained_intra=0 / bframes=6 / b_pyramid=2 / b_adapt=2 / b_bias=0 / direct=1 / weightb=1 / open_gop=0 / weightp=2 / keyint=240 / keyint_min=24 / scenecut=40 / intra_refresh=0 / rc_lookahead=40 / rc=2pass / mbtree=1 / bitrate=8000 / ratetol=1.0 / qcomp=0.60 / qpmin=0 / qpmax=69 / qpstep=4 / cplxblur=20.0 / qblur=0.5 / ip_ratio=1.40 / aq=1:1.00
Language                                 : English
Encoded date                             : UTC 2013-10-16 19:19:08
Tagged date                              : UTC 2013-10-16 19:20:29
Color primaries                          : BT.709-5, BT.1361, IEC 61966-2-4, SMPTE RP177
Transfer characteristics                 : BT.709-5, BT.1361
Matrix coefficients                      : BT.709-5, BT.1361, IEC 61966-2-4 709, SMPTE RP177

Video #2
ID                                       : 9
Format                                   : JPEG
Codec ID                                 : jpeg
Duration                                 : 1h 45mn
Bit rate mode                            : Variable
Bit rate                                 : 716 bps
Width                                    : 640 pixels
Height                                   : 266 pixels
Display aspect ratio                     : 2.40:1
Frame rate mode                          : Variable
Frame rate                               : 0.003 fps
Minimum frame rate                       : 0.001 fps
Maximum frame rate                       : 0.005 fps
Color space                              : YUV
Chroma subsampling                       : 4:2:0
Bit depth                                : 8 bits
Compression mode                         : Lossy
Bits/(Pixel*Frame)                       : 1.402
Stream size                              : 466 KiB (0%)
Language                                 : English
Encoded date                             : UTC 2013-10-16 19:20:45
Tagged date                              : UTC 2013-10-16 19:20:45

Audio #1
ID                                       : 2
Format                                   : AAC
Format/Info                              : Advanced Audio Codec
Format profile                           : LC
Codec ID                                 : 40
Duration                                 : 1h 45mn
Bit rate mode                            : Variable
Bit rate                                 : 192 Kbps
Maximum bit rate                         : 302 Kbps
Channel(s)                               : 2 channels
Channel positions                        : Front: L R
Sampling rate                            : 48.0 KHz
Compression mode                         : Lossy
Stream size                              : 143 MiB (2%)
Language                                 : Russian
Encoded date                             : UTC 2013-10-16 19:19:08
Tagged date                              : UTC 2013-10-16 19:20:37

Audio #2
ID                                       : 3
Format                                   : AAC
Format/Info                              : Advanced Audio Codec
Format profile                           : LC
Codec ID                                 : 40
Duration                                 : 1h 45mn
Bit rate mode                            : Variable
Bit rate                                 : 192 Kbps
Maximum bit rate                         : 296 Kbps
Channel(s)                               : 2 channels
Channel positions                        : Front: L R
Sampling rate                            : 48.0 KHz
Compression mode                         : Lossy
Stream size                              : 143 MiB (2%)
Language                                 : English
Encoded date                             : UTC 2013-10-16 19:19:08
Tagged date                              : UTC 2013-10-16 19:20:37

Audio #3
ID                                       : 4
Format                                   : AC-3
Format/Info                              : Audio Coding 3
Mode extension                           : CM (complete main)
Format settings, Endianness              : Big
Codec ID                                 : ac-3
Duration                                 : 1h 45mn
Bit rate mode                            : Constant
Bit rate                                 : 384 Kbps
Channel(s)                               : 6 channels
Channel positions                        : Front: L C R, Side: L R, LFE
Sampling rate                            : 48.0 KHz
Bit depth                                : 16 bits
Compression mode                         : Lossy
Stream size                              : 290 MiB (4%)
Language                                 : Russian
Encoded date                             : UTC 2013-10-16 19:19:08
Tagged date                              : UTC 2013-10-16 19:20:29

Audio #4
ID                                       : 5
Format                                   : AC-3
Format/Info                              : Audio Coding 3
Mode extension                           : CM (complete main)
Format settings, Endianness              : Big
Codec ID                                 : ac-3
Duration                                 : 1h 45mn
Bit rate mode                            : Constant
Bit rate                                 : 640 Kbps
Channel(s)                               : 6 channels
Channel positions                        : Front: L C R, Side: L R, LFE
Sampling rate                            : 48.0 KHz
Bit depth                                : 16 bits
Compression mode                         : Lossy
Stream size                              : 483 MiB (7%)
Language                                 : English
Encoded date                             : UTC 2013-10-16 19:19:08
Tagged date                              : UTC 2013-10-16 19:20:29

Text #1
ID                                       : 6
Format                                   : Timed text
Muxing mode                              : sbtl
Codec ID                                 : tx3g
Duration                                 : 1h 39mn
Bit rate mode                            : Variable
Bit rate                                 : 118 bps
Stream size                              : 86.4 KiB (0%)
Language                                 : Russian
Encoded date                             : UTC 2013-10-16 19:19:08
Tagged date                              : UTC 2013-10-16 19:19:08

Text #2
ID                                       : 7
Format                                   : Timed text
Muxing mode                              : sbtl
Codec ID                                 : tx3g
Duration                                 : 1h 41mn
Bit rate mode                            : Variable
Bit rate                                 : 74 bps
Stream size                              : 54.8 KiB (0%)
Language                                 : English
Encoded date                             : UTC 2013-10-16 19:19:08
Tagged date                              : UTC 2013-10-16 19:19:08

Text #3
ID                                       : 10
Format                                   : Apple text
Codec ID                                 : text
Duration                                 : 1h 45mn
Bit rate mode                            : Constant
Bit rate                                 : 1 bps
Stream size                              : 416 Bytes (0%)
Encoded date                             : UTC 2013-10-16 19:24:34
Tagged date                              : UTC 2013-10-16 19:24:34

Menu
00:00:00.000                             : 00:00:00.000
00:05:41.424                             : 00:05:41.341
00:12:40.968                             : 00:12:40.885
00:18:13.717                             : 00:18:13.634
00:23:03.214                             : 00:23:03.132
00:29:12.499                             : 00:29:12.417
00:36:10.041                             : 00:36:09.959
00:44:15.817                             : 00:44:15.736
00:48:28.360                             : 00:48:28.280
00:55:44.170                             : 00:55:44.091
01:01:32.226                             : 01:01:32.105
01:09:21.862                             : 01:09:21.783
01:15:47.622                             : 01:15:47.543
01:22:33.819                             : 01:22:33.740
01:27:34.953                             : 01:27:34.875
01:31:15.131                             : 01:31:15.053

x264 лог

Код:

x264 [info]: frame I:956   Avg QP:13.77  size:155102  PSNR Mean Y:51.05 U:53.09 V:52.53 Avg:51.54 Global:50.54
x264 [info]: frame P:38911 Avg QP:16.08  size: 55996  PSNR Mean Y:49.12 U:52.03 V:51.36 Avg:49.78 Global:48.84
x264 [info]: frame B:112001 Avg QP:16.96  size: 35741  PSNR Mean Y:48.27 U:51.40 V:50.72 Avg:48.97 Global:47.75
x264 [info]: consecutive B-frames:  4.0%  7.9% 15.1%  9.4% 14.0% 43.8%  5.9%
x264 [info]: mb I  I16..4: 43.8% 45.8% 10.3%
x264 [info]: mb P  I16..4: 15.9% 13.2%  1.7%  P16..4: 32.3% 15.5%  6.9%  0.0%  0.0%    skip:14.4%
x264 [info]: mb B  I16..4:  8.0%  1.7%  0.2%  B16..8: 37.5%  9.3%  2.1%  direct: 8.7%  skip:32.5%  L0:44.9% L1:49.4% BI: 5.8%
x264 [info]: 8x8 transform intra:31.2% inter:59.1%
x264 [info]: coded y,uvDC,uvAC intra: 87.0% 82.0% 65.7% inter: 32.7% 27.3% 3.7%
x264 [info]: i16 v,h,dc,p: 12%  8% 48% 31%
x264 [info]: i8 v,h,dc,ddl,ddr,vr,hd,vl,hu:  7%  7%  8% 11% 15% 14% 14% 12% 13%
x264 [info]: i4 v,h,dc,ddl,ddr,vr,hd,vl,hu:  8%  8% 11%  9% 14% 13% 13% 11% 14%
x264 [info]: i8c dc,h,v,p: 53% 19% 16% 13%
x264 [info]: Weighted P-Frames: Y:2.7% UV:1.7%
x264 [info]: ref P L0: 55.4%  7.3% 24.0% 11.3%  2.0%  0.0%
x264 [info]: ref B L0: 82.8% 14.1%  3.1%
x264 [info]: ref B L1: 90.0% 10.0%
x264 [info]: SSIM Mean Y:0.9845014 (18.097db)
x264 [info]: PSNR Mean Y:48.503 U:51.572 V:50.898 Avg:49.194 Global:48.015 kb/s:7995.00

Скриншоты:



Релиз подготовлен для просмотра на Apple TV, iPad, iPhone, iPod Touch.
Для просмотра данного релиза на компьютере с ОС Windows рекомендуется использовать VLC media player

Смотреть Online

http://moonwalk.cc/video/7143468a46a5f1d2421b316d3d098cf2/iframe
Детали торрента:
Название:Мерзлая земля / The Frozen Ground (2013) BDRip [1080p] ATV
Дата добавления:17 Окт 2013 00:34:15
Размер:6,94 GB
Раздают:
Качают:0
Форум:Зарубежное видео HD для устройств Apple

All rights reserved © 2015-2018