TORRENTS43.COM

Скачать Документальное расследование. Эвтаназия. Право на смерть (2013) SATRip


Документальное расследование. Эвтаназия. Право на смерть (2013) SATRip
Режиссер / Телекомпания: Совершенно Секретно

Русское название: Документальное расследование
Год выпуска: 2013
Жанр: Документальный
Выпущено: Россия, Телеканал "Совершенно секретно"

Описание:
Вопрос эвтаназии остро стоит во всём мире. Люди, которые мечтают умереть, потому что терпеть ежедневную боль и страдания нет смысла. Люди, которые обречены на мучительную смерть, хотят, чтобы у них было право на смерть. Что толкает человека к решению прекратить свою жизнь? Кто должен решать судьбу смертельно больного человека? Можно ли разрешать эвтаназию в России? Кто выступает против искусственной смерти? Чьи аргументы звучат убедительней?

Продолжительность: ~ 00:42:47

Видеокодек: DviX
Битрейт видео: ~1281 kb/s
Размер кадра: 704 x 528
Качество видео: SATRip
Аудиокодек: MP3, 2ch.
Битрейт аудио: 128 kb/s

MediaInfo

Формат : AVI
Формат/Информация : Audio Video Interleave
Размер файла : 433 Мбайт
Продолжительность : 42 м.
Общий поток : 1413 Кбит/сек
Программа кодирования : VirtualDubMod 1.6.0.0 SURROUND (build 2560/release)
Библиотека кодирования : VirtualDubMod build 2560/release

Видео
Идентификатор : 0
Формат : MPEG-4 Visual
Параметр BVOP формата : 1
Параметр QPel формата : Нет
Параметр GMC формата : Без точки перехода
Параметр матрицы формата : Default (H.263)
Режим смешивания : Сжатый битовый поток
Идентификатор кодека : DX50
Идентификатор кодека/Подсказка : DivX 5
Продолжительность : 42 м.
Битрейт : 1276 Кбит/сек
Ширина : 704 пикселя
Высота : 528 пикселей
Соотношение сторон : 4:3
Частота кадров : 25,000 кадров/сек
Цветовое пространство : YUV
Субдискретизация насыщенности : 4:2:0
Битовая глубина : 8 бит
Тип развёртки : Прогрессивная
Метод сжатия : С потерями
Бит/(Пиксели*Кадры) : 0.137
Размер потока : 390 Мбайт (90%)
Библиотека кодирования : DivX 6.8.5 (UTC 2009-08-20)

Аудио
Идентификатор : 1
Формат : MPEG Audio
Версия формата : Version 1
Профиль формата : Layer 3
Режим : Joint stereo
Идентификатор кодека : 55
Идентификатор кодека/Подсказка : MP3
Продолжительность : 42 м.
Вид битрейта : Постоянный
Битрейт : 128 Кбит/сек
Каналы : 2 канала
Частота : 48,0 КГц
Метод сжатия : С потерями
Задержка видео : 4 мс.
Размер потока : 39,2 Мбайт (9%)
Выравнивание : Разделение по промежуткам
Продолжительность промежутка : 40 мс. (1,00 видеокадр)
Время предзагрузки промежутка : 500 мс.
Скриншоты:
Детали торрента:
Название:Документальное расследование. Эвтаназия. Право на смерть (2013) SATRip
Дата добавления:21 Окт 2013 21:06:30
Размер:433 MB
Раздают:
Качают:0
Форум:Тележурналистика

All rights reserved © 2015-2018