TORRENTS43.COM

Скачать Фокси Браун / Foxy Brown (1974) DVDRip [H.264]


Фокси Браун / Foxy Brown (1974) DVDRip [H.264]
«Don't mess aroun' with Foxy Brown»

Год выпуска: 1974
Жанр: Боевик, Триллер, Драма, Комедия, Криминал
Жанр: США/American International Pictures (AIP)

Описание фильма:
Живёт одна крутая девушка под именем — Фокси Браун. Однажды родной брат героини заложил ее парня, у которого были проблемы с местной мафией. Фокси, узнав, что любимого убили, начинает мстить.

Режиссер: Джек Хилл
Сценарий: Джек Хилл
Продюсер: Базз Фейтшанс
Актеры: Пэм Гриер, Антонио Фаргас, Питер Браун, Терри Картер, Кэтрин Лодер, Гарри Холкомб, Сид Хэйг, Хуанита Браун, Сэлли Энн Страуд, Боб Майнор

Продолжительность: 01:31:38
Качество видео: DVDRip
Перевод: Двуголосый закадровый



Дата мировой премьеры: 5 апреля 1974

Видеокодек: MPEG-4 AVC/H.264
Битрейт видео: ~2077 Кбит/сек
Размер кадра: 720x400
Аудиокодек: AC3 2.0
Битрейт аудио: 192 Кбит/сек

Реценция с кинопоиска от cyberlaw:

Создатели этого кино сделали очень правильно, что не стали снимать сиквел «Коффи». Они пошли по другому пути. Используя те же самые «струны», которые были задействованы в «Коффи» Джек Хилл снова снял кино, в котором разъяренная Пэм Гриер мстит.
В отличие от «Коффи», в которой насилие было равномерно распределено в течение всего действия фильма, в «Фокси Браун» Пэм Гриер не сразу приходит к мести. Ну а потом, она просто наслаждается ситуацией — играя в «кошки — мышки» со своими обидчиками.
К тому же, Фокси Браун, в отличие от Коффи — это более спокойная героиня.
Еще можно рекомендовать обратить особе внимание на саундтрек к этому фильму.
В итоге: еще один фильм в стиле «Коффи». Фильм с весьма заурядным и прямолинейным сюжетом, который Джек Хилл сумел снять настолько стильно и изысканно, что иногда остается просто сожалеть, что не жил в 70-х.
Ну и конечно замечательная Пэм Гриер. Думаю, что ее роль была одной из лучших и в 1974 году (наравне с Джиной Роулендс из «Женщины под влиянием»).
10 из 10

MediaInfo:

Общее
Уникальный идентификатор : 204531311491590105584614827804116976041 (0x99DF4C3877FF9CAD8DC33D2B502D01A9)
Полное имя : H:\Downloads\Фокси Браун.mkv
Формат : Matroska
Размер файла : 1,45 Гбайт
Продолжительность : 1 ч. 31 м.
Общий поток : 2271 Кбит/сек
Дата кодирования : UTC 2013-10-24 20:54:50
Программа кодирования : mkvmerge v6.0.0 ('Coming Up For Air') built on Jan 20 2013 09:52:00
Библиотека кодирования : libebml v1.3.0 + libmatroska v1.4.0

Видео
Идентификатор : 1
Формат : AVC
Формат/Информация : Advanced Video Codec
Профиль формата : High@L3.1
Параметр CABAC формата : Да
Параметр ReFrames формата : 8 кадров
Параметры GOP формата : M=1, N=2
Идентификатор кодека : V_MPEG4/ISO/AVC
Продолжительность : 1 ч. 31 м.
Битрейт : 2077 Кбит/сек
Ширина : 720 пикс.
Высота : 400 пикс.
Соотношение сторон : 16:9
Частота кадров : 23,976 кадр/сек
Цветовое пространство : YUV
Подвыборка цветности : 4:2:0
Битовая глубина : 8 бит
Тип развёртки : Прогрессивная
Бит/(Пиксели*Кадры) : 0.301
Размер потока : 1,30 Гбайт (90%)
Заголовок : Foxy Brown
Библиотека кодирования : x264 core 125 r2208 d9d2288
Настройки программы : cabac=1 / ref=8 / deblock=1:-1:-1 / analyse=0x3:0x133 / me=umh / subme=9 / psy=1 / psy_rd=1.00:0.10 / mixed_ref=1 / me_range=32 / chroma_me=1 / trellis=2 / 8x8dct=1 / cqm=0 / deadzone=21,11 / fast_pskip=0 / chroma_qp_offset=-3 / threads=6 / lookahead_threads=1 / sliced_threads=0 / nr=0 / decimate=1 / interlaced=0 / bluray_compat=0 / constrained_intra=0 / bframes=3 / b_pyramid=2 / b_adapt=2 / b_bias=0 / direct=3 / weightb=1 / open_gop=0 / weightp=2 / keyint=250 / keyint_min=25 / scenecut=40 / intra_refresh=0 / rc_lookahead=60 / rc=2pass / mbtree=1 / bitrate=2077 / ratetol=1.0 / qcomp=0.60 / qpmin=10 / qpmax=51 / qpstep=4 / cplxblur=20.0 / qblur=0.5 / ip_ratio=1.40 / aq=1:1.00
Язык : English

Аудио
Идентификатор : 2
Формат : AC-3
Формат/Информация : Audio Coding 3
Расширение режима : CM (complete main)
Идентификатор кодека : A_AC3
Продолжительность : 1 ч. 31 м.
Вид битрейта : Постоянный
Битрейт : 192 Кбит/сек
Каналы : 2 канала
Расположение каналов : Front: L R
Частота : 48,0 КГц
Битовая глубина : 16 бит
Метод сжатия : С потерями
Размер потока : 126 Мбайт (8%)
Заголовок : Профессиональный (двухголосый)
Язык : Russian
Скриншоты:




Детали торрента:
Название:Фокси Браун / Foxy Brown (1974) DVDRip [H.264]
Дата добавления:25 Окт 2013 13:58:56
Размер:1,45 GB
Раздают:1
Качают:0
Форум:Старые Зарубежные Фильмы (HD*Rip/LQ, DVDRip, SATRip, VHSRip)

All rights reserved © 2015-2018