TORRENTS43.COM

Скачать Нападение на Уолл-стрит / Эпоха алчности / Assault on Wall Street (2013) BDRip [H.264]


Нападение на Уолл-стрит / Эпоха алчности / Assault on Wall Street (2013) BDRip [H.264]
Год выпуска: 2013
Производство: Канада / Lynn Peak Productions
Жанр: Боевик, Триллер, Драма
Перевод: Многоголосый закадровый, профессиональный | Лицензия |
Субтитры: Вшитые отключаемые
Язык субтитров: Русский, Английский

Дата мировой премьеры: 10 мая 2013
Дата российской премьеры: Нет информации
Дата выхода DVD релиза: 14 ноября 2013, «CP Дистрибуция»

Режиссер: Уве Болл
Продюсер: Дэн Кларк, Шон Уильямсон, Джонатан Шор
Актеры: Доминик Пёрселл, Эрин Карплак, Эдвард Ферлонг, Джон Хёрд, Кит Дэвид, Майкл Паре, Локлин Манро, Тайрон Лейтсо, Майк Допуд, Барклай Хоуп, Эрик Робертс, Хезер Вини

Описание фильма:
Это история обычного, среднестатистического жителя Нью-Йорка, с хорошей работой и счастливой семьей. После того, как наступает экономический кризис, он лишается работы и будучи в отчаянии он берет оружие и отправляется мстить за свою испорченную жизнь.



Продолжительность: 01:38:55
Качество видео: BDRip | исх. Assault on Wall Street (2013) Blu-ray 1080i AVC DTS-HD 5.1-PublicHD

Видеокодек: MPEG-4 AVC/H.264
Битрейт видео: 2334 kb/s
Размер кадра: 1024x576, 23.976 fps
Аудио #1: 48 kHz, AC3 Dolby Digital, 3/2 (L,C,R,l,r) + LFE ch, 384.00 kbps (Русский) / Лицензия
Аудио #2: 48 kHz, AC3 Dolby Digital, 3/2 (L,C,R,l,r) + LFE ch, 448.00 kbps (Английский) / Оригинал

MI

Код:
Общее
Уникальный идентификатор                 : 252233961663079443913579297247243230005 (0xBDC27E753346F41CB7A0472CF2CF5B35)
Полное имя                               : D:\Раздачи\Napadenie.na.Yol.Street.2013.x264.BDRip.torrents43.comv
Формат                                   : Matroska
Версия формата                           : Version 2
Размер файла                             : 2,19 Гбайт
Продолжительность                        : 1 ч. 38 м.
Общий поток                              : 3166 Кбит/сек
Название фильма                          : Napadenie na Yol Street 2013 BDRip torrents43.com />Дата кодирования                         : UTC 2013-11-12 19:02:12
Программа кодирования                    : mkvmerge v4.9.1 ('Ich will') сборка от Jul 11 2011 23:53:15
Библиотека кодирования                   : libebml v1.2.1 + libmatroska v1.1.1

Видео
Идентификатор                            : 1
Формат                                   : AVC
Формат/Информация                        : Advanced Video Codec
Профиль формата                          : High@L4.1
Параметр CABAC формата                   : Да
Параметр ReFrames формата                : 13 кадров
Идентификатор кодека                     : V_MPEG4/ISO/AVC
Продолжительность                        : 1 ч. 38 м.
Битрейт                                  : 2334 Кбит/сек
Ширина                                   : 1024 пикселя
Высота                                   : 576 пикселей
Соотношение сторон                       : 16:9
Режим частоты кадров                     : Постоянный
Частота кадров                           : 23,976 кадра/сек
Цветовое пространство                    : YUV
Субдискретизация насыщенности            : 4:2:0
Битовая глубина                          : 8 бит
Тип развёртки                            : Прогрессивная
Бит/(Пиксели*Кадры)                      : 0.165
Размер потока                            : 1,57 Гбайт (72%)
Заголовок                                : Bailout: The Age of Greed
Библиотека кодирования                   : x264 core 125 r2208 d9d2288
Настройки программы                      : cabac=1 / ref=13 / deblock=1:-2:-1 / analyse=0x3:0x133 / me=umh / subme=11 / psy=1 / psy_rd=1.09:0.07 / mixed_ref=1 / me_range=32 / chroma_me=1 / trellis=2 / 8x8dct=1 / cqm=0 / deadzone=21,11 / fast_pskip=0 / chroma_qp_offset=-3 / threads=9 / lookahead_threads=1 / sliced_threads=0 / nr=0 / decimate=1 / interlaced=0 / bluray_compat=0 / constrained_intra=0 / bframes=14 / b_pyramid=2 / b_adapt=2 / b_bias=0 / direct=3 / weightb=1 / open_gop=0 / weightp=2 / keyint=240 / keyint_min=23 / scenecut=40 / intra_refresh=0 / rc_lookahead=150 / rc=2pass / mbtree=1 / bitrate=2334 / ratetol=1.0 / qcomp=0.70 / qpmin=0 / qpmax=69 / qpstep=4 / cplxblur=20.0 / qblur=0.5 / vbv_maxrate=20000 / vbv_bufsize=25000 / nal_hrd=none / ip_ratio=1.35 / aq=1:0.70
Язык                                     : English
Default                                  : Да
Forced                                   : Нет

Аудио #1
Идентификатор                            : 2
Формат                                   : AC-3
Формат/Информация                        : Audio Coding 3
Расширение режима                        : CM (complete main)
Параметр Endianness формата              : Big
Идентификатор кодека                     : A_AC3
Продолжительность                        : 1 ч. 38 м.
Вид битрейта                             : Постоянный
Битрейт                                  : 384 Кбит/сек
Каналы                                   : 6 каналов
Расположение каналов                     : Front: L C R, Side: L R, LFE
Частота                                  : 48,0 КГц
Битовая глубина                          : 16 бит
Метод сжатия                             : С потерями
Размер потока                            : 272 Мбайт (12%)
Заголовок                                : Лицензия | DD 5.1 @ 384 kbps
Язык                                     : Russian
Default                                  : Да
Forced                                   : Да

Аудио #2
Идентификатор                            : 3
Формат                                   : AC-3
Формат/Информация                        : Audio Coding 3
Расширение режима                        : CM (complete main)
Параметр Endianness формата              : Big
Идентификатор кодека                     : A_AC3
Продолжительность                        : 1 ч. 38 м.
Вид битрейта                             : Постоянный
Битрейт                                  : 448 Кбит/сек
Каналы                                   : 6 каналов
Расположение каналов                     : Front: L C R, Side: L R, LFE
Частота                                  : 48,0 КГц
Битовая глубина                          : 16 бит
Метод сжатия                             : С потерями
Размер потока                            : 317 Мбайт (14%)
Заголовок                                : Original | DD 5.1 @ 448 kbps
Язык                                     : English
Default                                  : Нет
Forced                                   : Нет

Текст #1
Идентификатор                            : 4
Формат                                   : UTF-8
Идентификатор кодека                     : S_TEXT/UTF8
Идентификатор кодека/Информация          : UTF-8 Plain Text
Язык                                     : Russian
Default                                  : Нет
Forced                                   : Нет

Текст #2
Идентификатор                            : 5
Формат                                   : UTF-8
Идентификатор кодека                     : S_TEXT/UTF8
Идентификатор кодека/Информация          : UTF-8 Plain Text
Язык                                     : English
Default                                  : Нет
Forced                                   : Нет

log@x.264

x264 [info]: frame I:1216 Avg QP:16.20 size: 68197
x264 [info]: frame P:29386 Avg QP:17.44 size: 26731
x264 [info]: frame B:111707 Avg QP:19.92 size: 7716
x264 [info]: consecutive B-frames: 2.2% 2.4% 9.0% 10.3% 7.9% 60.1% 2.3% 0.6% 2.0% 0.3% 0.4% 1.8% 0.1% 0.2% 0.4%
x264 [info]: mb I I16..4: 13.6% 62.9% 23.5%
x264 [info]: mb P I16..4: 1.0% 8.1% 1.4% P16..4: 32.0% 37.5% 11.6% 2.5% 0.3% skip: 5.7%
x264 [info]: mb B I16..4: 0.1% 0.6% 0.1% B16..8: 39.4% 20.8% 2.7% direct: 4.1% skip:32.2% L0:42.1% L1:48.1% BI: 9.8%
x264 [info]: 8x8 transform intra:74.6% inter:61.0%
x264 [info]: direct mvs spatial:99.4% temporal:0.6%
x264 [info]: coded y,uvDC,uvAC intra: 86.1% 74.4% 48.9% inter: 20.5% 13.1% 2.6%
x264 [info]: i16 v,h,dc,p: 30% 11% 5% 54%
x264 [info]: i8 v,h,dc,ddl,ddr,vr,hd,vl,hu: 10% 8% 5% 10% 15% 14% 14% 13% 12%
x264 [info]: i4 v,h,dc,ddl,ddr,vr,hd,vl,hu: 13% 9% 4% 10% 15% 14% 13% 11% 12%
x264 [info]: i8c dc,h,v,p: 37% 27% 21% 15%
x264 [info]: Weighted P-Frames: Y:2.1% UV:0.5%
x264 [info]: ref P L0: 50.7% 9.4% 15.7% 6.2% 4.6% 3.4% 2.8% 1.6% 1.4% 1.2% 1.1% 1.0% 1.0% 0.2% 0.0%
x264 [info]: ref B L0: 79.0% 9.6% 4.4% 2.0% 1.5% 1.1% 0.8% 0.5% 0.4% 0.3% 0.2% 0.1%
x264 [info]: ref B L1: 93.2% 6.8%
x264 [info]: kb/s:2332.26

x264 [total]: encoded 142309 frames, 6.21 fps, 2332.26 kb/s
Скриншоты:


Смотреть Online

http://moonwalk.cc/video/ab2fb95fbf926e9d0ad093d0d0eee17d/iframe
Детали торрента:
Название:Нападение на Уолл-стрит / Эпоха алчности / Assault on Wall Street (2013) BDRip [H.264]
Дата добавления:12 Ноя 2013 22:07:28
Размер:2,19 GB
Раздают:2
Качают:0
Форум:Зарубежные Фильмы (HD*Rip/LQ, DVDRip, SATRip, VHSRip)

All rights reserved © 2015-2018