TORRENTS43.COM

Скачать Доктор Кто / Doctor Who (2012-2013) WEB-DLRip (Сезон 7, серии 1-14 из 14) (ВГТРК)


Доктор Кто / Doctor Who (2012-2013) WEB-DLRip (Сезон 7, серии 1-14 из 14) (ВГТРК)
Год выпуска: 2012-2013
Жанр: Фантастика, Приключения, Комедия

Перевод: Профессиональный многоголосый закадровый (по заказу ВГТРК для «Карусель»)
Запись и сведение звука: Vedigo



Режиссер: Сол Мецстин, Колм Маккарти, Дуглас Маккиннон, Фаррэн Блэкбёрн, Джейми Пейн, Мэт Кинг, Стивен Уолфенден
Актеры: Мэтт Смит, Карен Гиллан, Артур Дарвилл, Алекс Кингстон, Дженна Луиза-Коулмэн

Описание фильма:
Британский научно-фантастический телесериал компании Би-Би-Си о загадочном путешественнике во времени, известном как «Доктор», который вместе со своими спутниками исследует время и пространство, борясь со вселенским злом.
У него на вооружении - машина времени TARDIS - Time And Relative Dimension In Space. Снаружи это всего лишь британская полицейская будка 1950-х, а внутри гораздо более просторный пространственно-временной корабль.

Продолжительность: ~00:48:00 серия
Качество видео: WEB-DLRip

«Доктор Кто / Doctor Who» на трекере

Видеокодек: Xvid
Битрейт видео: ~1501kbps
Размер кадра: 720x400
Аудио 1: AC3 192kbps 2ch (Русский)
Аудио 2: MP3 192kpbs 2ch (Английский)

MEDIAINFO

Format : AVI
Format/Info : Audio Video Interleave
File size : 665 MiB
Duration : 48mn 56s
Overall bit rate : 1 899 Kbps
Writing application : VirtualDubMod 1.5.10.2 (build 2540/release)
Writing library : VirtualDubMod build 2540/release

Video
ID : 0
Format : MPEG-4 Visual
Format profile : Advanced Simple@L5
Format settings, BVOP : 2
Format settings, QPel : No
Format settings, GMC : No warppoints
Format settings, Matrix : Default (H.263)
Codec ID : XVID
Codec ID/Hint : XviD
Duration : 48mn 56s
Bit rate : 1 501 Kbps
Width : 720 pixels
Height : 400 pixels
Display aspect ratio : 16:9
Frame rate : 25.000 fps
Color space : YUV
Chroma subsampling : 4:2:0
Bit depth : 8 bits
Scan type : Progressive
Compression mode : Lossy
Bits/(Pixel*Frame) : 0.208
Stream size : 525 MiB (79%)
Writing library : XviD 1.2.1 (UTC 2008-12-04)

Audio #1
ID : 1
Format : AC-3
Format/Info : Audio Coding 3
Mode extension : CM (complete main)
Format settings, Endianness : Big
Codec ID : 2000
Duration : 48mn 56s
Bit rate mode : Constant
Bit rate : 192 Kbps
Channel(s) : 2 channels
Channel positions : Front: L R
Sampling rate : 48.0 KHz
Bit depth : 16 bits
Compression mode : Lossy
Stream size : 67.2 MiB (10%)
Alignment : Split accross interleaves
Interleave, duration : 40 ms (1.00 video frame)
Interleave, preload duration : 500 ms

Audio #2
ID : 2
Format : MPEG Audio
Format version : Version 1
Format profile : Layer 3
Mode : Joint stereo
Mode extension : MS Stereo
Codec ID : 55
Codec ID/Hint : MP3
Duration : 48mn 56s
Bit rate mode : Constant
Bit rate : 192 Kbps
Channel(s) : 2 channels
Sampling rate : 48.0 KHz
Compression mode : Lossy
Stream size : 67.2 MiB (10%)
Alignment : Split accross interleaves
Interleave, duration : 40 ms (1.00 video frame)
Interleave, preload duration : 500 ms
Writing library : LAME3.99r
Encoding settings : -m j -V 4 -q 2 -lowpass 18.6 -b 192
Скриншоты:


Смотреть Online

http://moonwalk.cc/video/b32805832c249945/iframe
Детали торрента:
Название:Доктор Кто / Doctor Who (2012-2013) WEB-DLRip (Сезон 7, серии 1-14 из 14) (ВГТРК)
Дата добавления:18 Янв 2014 19:48:40
Размер:8,45 GB
Раздают:
Качают:0
Форум:Доктор кто / Doctor Who; Торчвуд / Torchwood

All rights reserved © 2015-2018