TORRENTS43.COM

Скачать Доктор Кто. День Доктора / Doctor Who. The Day of the Doctor (2013) HDTVRip [ВГТРК]


Доктор Кто. День Доктора / Doctor Who. The Day of the Doctor (2013) HDTVRip
Режиссер / Телекомпания: BBC

Русское название: Доктор Кто. День Доктора
Оригинальное название: Doctor Who. The Day of the Doctor
Год выпуска: 2013
Жанр: Фантастика, приключения
Призводство: Великобритания, British Broadcasting Corporation (BBC)

Описание:
Сериалу «Доктор Кто» исполняется 50 лет! Смотрите грандиозную премьеру на канале «Карусель»! 23 ноября — дата, знаковая для многих любителей научной фантастики, ведь в этот день празднует свое рождение культовый научно-фантастический сериал «Доктор Кто», официально признанный самым продолжительным в этой категории. Компания «BBC» планирует проводить масштабное празднование юбилея одного из самых популярных британских сериалов. Спецвыпуск будет показан 23 ноября в одно и то же время более чем в 75 странах мира. В Великобритании его будет транслировать телеканал «BBC One», российским же зрителям уникальную возможность просмотра «Дня Доктора» одновременно со всем миром подарит канал «Карусель». Известно, что героями спецвыпуска станут Десятый и Одиннадцатый Доктор со своими спутницами Розой Тайлер и Кларой Освальд. Также зрители увидят неизвестное воплощение Доктора.

Режиссер: Ник Харран

Актеры: Мэтт Смит, Дженна Коулман, Билли Пайпер, Дэвид Теннант, Джон Хёрт, Джоанна Пейдж, Джемма Редгрейв, Ингрид Оливер, Николас Бриггс, Кен Боунс, Орландо Джеймс

Перевод: Профессиональный многоголосый (ВГТРК)

Продолжительность: 01:16:31

Видеокодек: XVID
Качество видео: HDTVRip
Битрейт видео: ~2039 kb/s
Размер кадра: 720 x 400
Аудио (русский): AC-3, 2.0ch., 192 kb/s
Аудио (английский): AC-3, 2.0ch., 320 kb/s

MediaInfo:

Формат : AVI
Формат/Информация : Audio Video Interleave
Размер файла : 1,37 Гбайт
Продолжительность : 1 ч. 16 м.
Общий поток : 2562 Кбит/сек
Программа кодирования : VirtualDubMod 1.5.10.2 (build 2540/release)
Библиотека кодирования : VirtualDubMod build 2540/release

Видео
Идентификатор : 0
Формат : MPEG-4 Visual
Профиль формата : Simple@L3
Параметр BVOP формата : Нет
Параметр QPel формата : Нет
Параметр GMC формата : Без точки перехода
Параметр матрицы формата : Default (H.263)
Идентификатор кодека : XVID
Идентификатор кодека/Подсказка : XviD
Продолжительность : 1 ч. 16 м.
Битрейт : 2039 Кбит/сек
Ширина : 720 пикселей
Высота : 400 пикселей
Соотношение сторон : 16:9
Частота кадров : 25,000 кадров/сек
Цветовое пространство : YUV
Субдискретизация насыщенности : 4:2:0
Битовая глубина : 8 бит
Тип развёртки : Прогрессивная
Метод сжатия : С потерями
Бит/(Пиксели*Кадры) : 0.283
Размер потока : 1,09 Гбайт (80%)
Библиотека кодирования : XviD 64

Аудио #1
Идентификатор : 1
Формат : AC-3
Формат/Информация : Audio Coding 3
Расширение режима : CM (complete main)
Идентификатор кодека : 2000
Продолжительность : 1 ч. 16 м.
Вид битрейта : Постоянный
Битрейт : 192 Кбит/сек
Каналы : 2 канала
Расположение каналов : Front: L R
Частота : 48,0 КГц
Битовая глубина : 16 бит
Метод сжатия : С потерями
Размер потока : 105 Мбайт (7%)
Выравнивание : Соединение по промежуткам
Продолжительность промежутка : 160 мс. (4,00 видеокадра)
Время предзагрузки промежутка : 640 мс.

Аудио #2
Идентификатор : 2
Формат : AC-3
Формат/Информация : Audio Coding 3
Расширение режима : CM (complete main)
Идентификатор кодека : 2000
Продолжительность : 1 ч. 16 м.
Вид битрейта : Постоянный
Битрейт : 320 Кбит/сек
Каналы : 2 канала
Расположение каналов : Front: L R
Частота : 48,0 КГц
Битовая глубина : 16 бит
Метод сжатия : С потерями
Размер потока : 175 Мбайт (12%)
Выравнивание : Разделение по промежуткам
Продолжительность промежутка : 40 мс. (1,00 видеокадр)
Время предзагрузки промежутка : 500 мс.
Скриншоты:
Детали торрента:
Название:Доктор Кто. День Доктора / Doctor Who. The Day of the Doctor (2013) HDTVRip [ВГТРК]
Дата добавления:24 Ноя 2013 14:51:44
Размер:1,37 GB
Раздают:
Качают:0
Форум:Доктор кто / Doctor Who; Торчвуд / Torchwood

All rights reserved © 2015-2018