TORRENTS43.COM

Скачать Шапка Мономаха (1982) TVRip


Шапка Мономаха (1982) TVRip
Год выпуска: 1982
Жанр: Семейный, детский

Описание фильма: Неприметный восьмиклассник в силу обстоятельств неожиданно провозглашается в школе гением. Сразу все, и школьники, и преподаватели, стали относиться к нему иначе. Все поняли, что он настоящая личность, добрый и чуткий человек.

Режиссер: Искандер Хамраев

Актеры: Коля Феофанов, Даша Мальчевская, Габриэль Воробьев, Людмила Чурсина, Михаил Светин

Продолжительность: 01:03:05
Качество видео: TVRip



Видеокодек: DivX 5
Битрейт видео: ~1421 Кбит/сек
Размер кадра: 640x480
Аудиокодек: MP3, 2 ch, 128 Кбит/сек

MediaInfo:

Общее
Полное имя : E:\Интересно\!!!Конкурс детский\2Этап\!\Шапка Мономаха\Шапка Мономаха (1982) TVRip.avi
Формат : AVI
Формат/Информация : Audio Video Interleave
Размер файла : 703 Мбайт
Продолжительность : 1 ч. 3 м.
Общий поток : 1558 Кбит/сек
Программа кодирования : VirtualDubMod 1.5.10.2 (build 2540/release)
Библиотека кодирования : VirtualDubMod build 2540/release

Видео
Идентификатор : 0
Формат : MPEG-4 Visual
Параметр BVOP формата : 1
Параметр QPel формата : Нет
Параметр GMC формата : Без точки перехода
Параметр матрицы формата : Default (H.263)
Режим смешивания : Сжатый битовый поток
Идентификатор кодека : DX50
Идентификатор кодека/Подсказка : DivX 5
Продолжительность : 1 ч. 3 м.
Битрейт : 1421 Кбит/сек
Ширина : 640 пикселей
Высота : 480 пикселей
Соотношение сторон : 5:4
Соотношение сторон в оригинале : 4:3
Частота кадров : 25,000 кадров/сек
Цветовое пространство : YUV
Субдискретизация насыщенности : 4:2:0
Битовая глубина : 8 бит
Тип развёртки : Прогрессивная
Метод сжатия : С потерями
Бит/(Пиксели*Кадры) : 0.185
Размер потока : 641 Мбайт (91%)
Библиотека кодирования : DivX 6.0.0 (UTC 2005-06-15)

Аудио
Идентификатор : 1
Формат : MPEG Audio
Версия формата : Version 1
Профиль формата : Layer 3
Режим : Joint stereo
Расширение режима : MS Stereo
Идентификатор кодека : 55
Идентификатор кодека/Подсказка : MP3
Продолжительность : 1 ч. 3 м.
Вид битрейта : Постоянный
Битрейт : 128 Кбит/сек
Каналы : 2 канала
Частота : 48,0 КГц
Метод сжатия : С потерями
Размер потока : 57,8 Мбайт (8%)
Выравнивание : Разделение по промежуткам
Продолжительность промежутка : 40 мс. (1,00 видеокадр)
Время предзагрузки промежутка : 500 мс.
Скриншоты:








Детали торрента:
Название:Шапка Мономаха (1982) TVRip
Дата добавления:09 Дек 2013 16:37:42
Размер:703 MB
Раздают:
Качают:0
Форум:Отечественные Фильмы для детей

All rights reserved © 2015-2018