TORRENTS43.COM

Скачать Шесть снежных дней (1986) TVRip


Шесть снежных дней (1986) TVRip
Год выпуска: 1986

Жанр: Драма

Описание фильма: Ника проводил зимние каникулы в горах у бабушки. Однажды сильный снегопад отрезал его от людей на отдаленной ферме, куда он отправился в гости к родственнику. Шесть дней, которые провел Ника на ферме в экстремальных условиях, многому его научили и закалили..

Режиссер: Юрий Квачадзе

Актеры: Алексей Антаури, Элгуджа Апциаури, Мераб Бекаури, Элгуджа Бурдули, Дато Чубинишвили, Нугзар Гогодзе, Сосо Джачвлиани, Гулико Какачия, Эльза Кудрявцева

Продолжительность: 01:06:22
Качество видео: TVRip



Видеокодек: DivX 5
Битрейт видео: ~1650 Кбит/сек
Размер кадра: 640x496
Аудиокодек: MP3, 2 ch, 128 Кбит/сек

MediaInfo:

Общее
Полное имя : E:\Интересно\!!!Конкурс детский\2Этап\!\Шесть снежных дней\Шесть снежных дней (1986) TVRip.avi
Формат : DivX
Формат/Информация : Hack of AVI
Размер файла : 849 Мбайт
Продолжительность : 1 ч. 6 м.
Общий поток : 1788 Кбит/сек

Видео
Идентификатор : 0
Формат : MPEG-4 Visual
Параметр BVOP формата : 1
Параметр QPel формата : Нет
Параметр GMC формата : Без точки перехода
Параметр матрицы формата : Default (H.263)
Режим смешивания : Сжатый битовый поток
Идентификатор кодека : DX50
Идентификатор кодека/Подсказка : DivX 5
Продолжительность : 1 ч. 6 м.
Битрейт : 1650 Кбит/сек
Ширина : 640 пикселей
Высота : 496 пикселей
Соотношение сторон : 1,290
Частота кадров : 25,000 кадров/сек
Цветовое пространство : YUV
Субдискретизация насыщенности : 4:2:0
Битовая глубина : 8 бит
Тип развёртки : Прогрессивная
Метод сжатия : С потерями
Бит/(Пиксели*Кадры) : 0.208
Размер потока : 784 Мбайт (92%)
Заголовок : Video
Библиотека кодирования : DivX 6.1.1 (UTC 2006-02-01)

Аудио
Идентификатор : 1
Формат : MPEG Audio
Версия формата : Version 1
Профиль формата : Layer 3
Режим : Dual mono
Идентификатор кодека : 55
Идентификатор кодека/Подсказка : MP3
Продолжительность : 1 ч. 6 м.
Вид битрейта : Постоянный
Битрейт : 128 Кбит/сек
Каналы : 2 канала
Частота : 44,1 КГц
Метод сжатия : С потерями
Размер потока : 60,8 Мбайт (7%)
Выравнивание : Разделение по промежуткам
Продолжительность промежутка : 40 мс. (1,00 видеокадр)
Время предзагрузки промежутка : 500 мс.
Заголовок : Audio
Скриншоты:








Детали торрента:
Название:Шесть снежных дней (1986) TVRip
Дата добавления:09 Дек 2013 17:11:51
Размер:849 MB
Раздают:
Качают:0
Форум:Отечественные Фильмы для детей

All rights reserved © 2015-2018