TORRENTS43.COM

Скачать Пять похищенных монахов (1991) TS


Пять похищенных монахов (1991) TS
Год выпуска: 1991
Жанр: Детский, Детективно-приключенческая комедия

Описание фильма: В приморском городе Карманове совершено дерзкое ограбление: банда "монахов" похитила из магазина крупную партию алмазов. Неизвестно, удалось бы капитану Болдыреву выйти на след банды, если бы у юного голубятника Кренделя не исчезли пять голубей-монахов...

Режиссер: Исаак Магитон

Актеры: Татьяна Агафонова, Дима Мосолов, Иван Агапов, Светлана Харлап, Лидия Королёва,Абессалом Лория,Георгий Милляр, Александр Пятков, Геннадий Храпунков, Александр Демидов

Продолжительность: 01:18:06

Качество видео: TS



Видеокодек: DivX 5
Битрейт видео: ~2201 Кбит/сек
Размер кадра: 704x544
Аудиокодек: MP3, 1 ch, 128 Кбит/сек

MediaInfo:

Общее
Полное имя : E:\Интересно\!!!Конкурс детский\2Этап\!\Пять похищенных монахов\Пять похищенных монахов (1991) TS.avi
Формат : AVI
Формат/Информация : Audio Video Interleave
Размер файла : 1,28 Гбайт
Продолжительность : 1 ч. 18 м.
Общий поток : 2338 Кбит/сек
Программа кодирования : VirtualDubMod 1.5.10.2 (build 2542/release)
Библиотека кодирования : VirtualDubMod build 2542/release

Видео
Идентификатор : 0
Формат : MPEG-4 Visual
Параметр BVOP формата : 3
Параметр QPel формата : Нет
Параметр GMC формата : Без точки перехода
Параметр матрицы формата : Default (H.263)
Режим смешивания : Сжатый битовый поток
Идентификатор кодека : DX50
Идентификатор кодека/Подсказка : DivX 5
Продолжительность : 1 ч. 18 м.
Битрейт : 2201 Кбит/сек
Ширина : 704 пикселя
Высота : 544 пикселя
Соотношение сторон : 5:4
Соотношение сторон в оригинале : 1,294
Частота кадров : 25,000 кадров/сек
Цветовое пространство : YUV
Субдискретизация насыщенности : 4:2:0
Битовая глубина : 8 бит
Тип развёртки : Прогрессивная
Метод сжатия : С потерями
Бит/(Пиксели*Кадры) : 0.230
Размер потока : 1,20 Гбайт (94%)
Библиотека кодирования : DivX 6.8.3-6.8.4 (UTC 2008-06-07)

Аудио
Идентификатор : 1
Формат : MPEG Audio
Версия формата : Version 1
Профиль формата : Layer 3
Идентификатор кодека : 55
Идентификатор кодека/Подсказка : MP3
Продолжительность : 1 ч. 18 м.
Вид битрейта : Постоянный
Битрейт : 128 Кбит/сек
Каналы : 1 канал
Частота : 48,0 КГц
Метод сжатия : С потерями
Размер потока : 71,5 Мбайт (5%)
Выравнивание : Соединение по промежуткам
Продолжительность промежутка : 40 мс. (1,00 видеокадр)
Время предзагрузки промежутка : 504 мс.
Библиотека кодирования : LAME3.97
Настройки программы : -m m -V 4 -q 0 -b 128
Скриншоты:








Детали торрента:
Название:Пять похищенных монахов (1991) TS
Дата добавления:10 Дек 2013 12:08:21
Размер:1,28 GB
Раздают:
Качают:0
Форум:Отечественные Фильмы для детей

All rights reserved © 2015-2018