TORRENTS43.COM

Скачать Золотой цыпленок (1993) TVRip


Золотой цыпленок (1993) TVRip
Год выпуска: 1993
Производство: Украина
Язык: Русский
Жанр: Сказка

Описание фильма: Сказка для детей и взрослых по одноименной пьесе Владимира Орлова. Это трогательная и веселая история о перевоспитавшемся злом Волке. Парочка аферистов - Лиса и Волк - украли Курочку Рябу, чтобы она несла золотые яйца. Но Волк курочку потерял, и ему пришлось самому высиживать яйцо...

Режиссер: Владимир Крайнев

Актеры: Михаил Светин, Богдан Бенюк, Артем Выженко, Наталья Терещенко, Георгий Морозюк, Николай Гудзь, Виктор Степаненко

Продолжительность: 01:11:48
Качество видео: TVRip



Видеокодек: DivX 5
Битрейт видео: ~1261 Кбит/сек
Размер кадра: 512x384
Аудиокодек: MP3, 1 ch, 96,0 Кбит/сек

MediaInfo:

Общее
Полное имя : E:\Интересно\!!!Конкурс детский\2Этап\!\Золотой цыплёнок\Золотой цыпленок Золоте курча (1993) TVRip.avi
Формат : AVI
Формат/Информация : Audio Video Interleave
Размер файла : 702 Мбайт
Продолжительность : 1 ч. 11 м.
Общий поток : 1366 Кбит/сек
Название фильма : Zolotoj cypljonok
Режиссёр : Slavuta Ltd.
Дата записи : 1993
Программа кодирования : VirtualDubMod 1.5.10.1 (build 2366/release)
Библиотека кодирования : VirtualDubMod build 2366/release

Видео
Идентификатор : 0
Формат : MPEG-4 Visual
Параметр BVOP формата : 1
Параметр QPel формата : Нет
Параметр GMC формата : Без точки перехода
Параметр матрицы формата : Default (H.263)
Режим смешивания : Сжатый битовый поток
Идентификатор кодека : DX50
Идентификатор кодека/Подсказка : DivX 5
Продолжительность : 1 ч. 11 м.
Битрейт : 1261 Кбит/сек
Ширина : 512 пикселей
Высота : 384 пикселя
Соотношение сторон : 4:3
Частота кадров : 25,000 кадров/сек
Цветовое пространство : YUV
Субдискретизация насыщенности : 4:2:0
Битовая глубина : 8 бит
Тип развёртки : Прогрессивная
Метод сжатия : С потерями
Бит/(Пиксели*Кадры) : 0.256
Размер потока : 648 Мбайт (92%)
Библиотека кодирования : DivX 5.0.3 (UTC 2003-01-24)

Аудио
Идентификатор : 1
Формат : MPEG Audio
Версия формата : Version 1
Профиль формата : Layer 3
Идентификатор кодека : 55
Идентификатор кодека/Подсказка : MP3
Продолжительность : 1 ч. 11 м.
Вид битрейта : Постоянный
Битрейт : 96,0 Кбит/сек
Каналы : 1 канал
Частота : 44,1 КГц
Метод сжатия : С потерями
Размер потока : 49,3 Мбайт (7%)
Выравнивание : Разделение по промежуткам
Продолжительность промежутка : 40 мс. (0,99 видеокадр)
Время предзагрузки промежутка : 500 мс.
Скриншоты:








Детали торрента:
Название:Золотой цыпленок (1993) TVRip
Дата добавления:10 Дек 2013 12:12:42
Размер:702 MB
Раздают:
Качают:0
Форум:Отечественные Фильмы для детей

All rights reserved © 2015-2018