TORRENTS43.COM

Скачать Приключение не удалось (1974) VHSRip


Приключение не удалось (1974) VHSRip
Год выпуска: 1974
Жанр: Детский, семейный

Описание фильма:
О жизни шестиклассников небольшого городка, об их взаимоотношениях друг с другом, о чувстве товарищества, умении прийти на помощь в трудную минуту.

Режиссер: Ваграм Кеворков

Актеры: В. Савченков, Л. Якунина, Г. Синицына, М. Пярн, Дима Куприянов, И. Кузнецов

Продолжительность: 00:58:44
Качество видео: VHSRip



Видеокодек: DivX 5
Битрейт видео: ~1529 Кбит/сек
Размер кадра: 704x560
Аудиокодек: MP3, 2 ch, 128 Кбит/сек

MediaInfo:

Общее
Полное имя : E:\Интересно\!!!Конкурс детский\2Этап\!\Приключение не удалось\Приключение не удалось (1974) VHSRip.avi
Формат : AVI
Формат/Информация : Audio Video Interleave
Размер файла : 700 Мбайт
Продолжительность : 58 м.
Общий поток : 1666 Кбит/сек
Программа кодирования : VirtualDubModRus 1.5.10.2 (build 2540/release)
Библиотека кодирования : VirtualDubMod build 2540/release

Видео
Идентификатор : 0
Формат : MPEG-4 Visual
Параметр BVOP формата : 1
Параметр QPel формата : Нет
Параметр GMC формата : Без точки перехода
Параметр матрицы формата : Default (H.263)
Режим смешивания : Сжатый битовый поток
Идентификатор кодека : DX50
Идентификатор кодека/Подсказка : DivX 5
Продолжительность : 58 м.
Битрейт : 1529 Кбит/сек
Ширина : 704 пикселя
Высота : 560 пикселей
Соотношение сторон : 5:4
Частота кадров : 25,000 кадров/сек
Цветовое пространство : YUV
Субдискретизация насыщенности : 4:2:0
Битовая глубина : 8 бит
Тип развёртки : Прогрессивная
Метод сжатия : С потерями
Бит/(Пиксели*Кадры) : 0.155
Размер потока : 642 Мбайт (92%)
Библиотека кодирования : DivX 6.8.5 (UTC 2009-08-20)

Аудио
Идентификатор : 1
Формат : MPEG Audio
Версия формата : Version 1
Профиль формата : Layer 3
Режим : Joint stereo
Идентификатор кодека : 55
Идентификатор кодека/Подсказка : MP3
Продолжительность : 58 м.
Вид битрейта : Постоянный
Битрейт : 128 Кбит/сек
Каналы : 2 канала
Частота : 48,0 КГц
Метод сжатия : С потерями
Размер потока : 53,8 Мбайт (8%)
Выравнивание : Соединение по промежуткам
Продолжительность промежутка : 40 мс. (1,00 видеокадр)
Время предзагрузки промежутка : 504 мс.
Скриншоты:








Детали торрента:
Название:Приключение не удалось (1974) VHSRip
Дата добавления:10 Дек 2013 12:14:23
Размер:700 MB
Раздают:
Качают:0
Форум:Отечественные Фильмы для детей

All rights reserved © 2015-2018