TORRENTS43.COM

Скачать Золотые часы (1968) SATRip


Золотые часы (1968) SATRip
Год выпуска: 1968
Жанр: Детский, Приключения

Описание фильма:
Двадцатые годы. Разгар нэпа и беспризорщины. Мальчонка - беспризорник украл золотые часы, но вскоре попал в детский дом. В новом коллективе ему было настолько хорошо, что юный вор задумался: а правильно ли он сделал, совершив кражу, и не вернуть ли ценную вещь хозяину?

Режиссер: Марк Толмачев
Актеры: Савелий Крамаров, Алексей Смирнов, Борис Юрченко, Андрей Никонов, Виктор Глазырин, Николай Пыркин, Виктор Коршунов, Олег Шорин, Наталья Антошкина, Виктор Халатов, Галина Бутовская, Михаил Васильев

Продолжительность: 01:11:44
Качество видео: SATRip



Видеокодек: DivX 5
Битрейт видео: ~2330 Kbps
Размер кадра: 704 x 512
Аудиокодек: AC3 2.0
Битрейт аудио: 192 Kbps

MediaInfo

Zolotye.chasy.1968.SATRip.avi
Format : AVI
Format/Info : Audio Video Interleave
File size : 1.37 GiB
Duration : 1h 11mn
Overall bit rate : 2 727 Kbps
Writing application : VirtualDubModRus 1.5.10.2 (build 2540/release)
Writing library : VirtualDubMod build 2540/release

Video
ID : 0
Format : MPEG-4 Visual
Format settings, BVOP : 1
Format settings, QPel : No
Format settings, GMC : No warppoints
Format settings, Matrix : Default (H.263)
Muxing mode : Packed bitstream
Codec ID : DX50
Codec ID/Hint : DivX 5
Duration : 1h 11mn
Bit rate : 2 329 Kbps
Width : 704 pixels
Height : 512 pixels
Display aspect ratio : 1.375
Frame rate : 25.000 fps
Color space : YUV
Chroma subsampling : 4:2:0
Bit depth : 8 bits
Scan type : Progressive
Compression mode : Lossy
Bits/(Pixel*Frame) : 0.258
Stream size : 1.17 GiB (85%)
Writing library : DivX 6.8.2 (UTC 2008-05-17)

Audio
ID : 1
Format : AC-3
Format/Info : Audio Coding 3
Mode extension : CM (complete main)
Format settings, Endianness : Big
Codec ID : 2000
Duration : 1h 11mn
Bit rate mode : Constant
Bit rate : 192 Kbps
Channel count : 2 channels
Channel positions : Front: L R
Sampling rate : 48.0 KHz
Bit depth : 16 bits
Compression mode : Lossy
Stream size : 98.5 MiB (7%)
Alignment : Aligned on interleaves
Interleave, duration : 40 ms (1.00 video frame)
Interleave, preload duration : 512 ms
Скриншоты:


Детали торрента:
Название:Золотые часы (1968) SATRip
Дата добавления:10 Дек 2013 12:32:30
Размер:1,37 GB
Раздают:1
Качают:0
Форум:Отечественные Фильмы для детей

All rights reserved © 2015-2018