TORRENTS43.COM

Скачать Садись рядом, Мишка (1977) DVDRip


Садись рядом, Мишка (1977) DVDRip
Год выпуска: 1977
Жанр: Детский, Военный

Описание фильма:
О блокадном Ленинграде, семилетнем Мишке Афанасьеве и его друзьях - брате Гене и сестренке Леночке, которые чаще всего оставались без присмотра родителей. Выступая с концертами в госпиталях, ребята общались с героями войны и конечно верили в победу.

Режиссер: Яков Базелян
Актеры: Женя Черницын, Гоша Носков, Оксана Бочкова, Стасик Селиванов, Борис Морозов, Наталья Рычагова, Андрей Мягков, Анастасия Вознесенская, Валерий Рыжаков, Александр Михайлушкин, Раднэр Муратов

Продолжительность: 01:12:38
Качество видео: DVDRip



Видеокодек: DivX 5
Битрейт видео: ~1650 kbps
Размер кадра: 704 x 448
Аудиокодек: AC3 2.0
Битрейт аудио: 192 kbps

MediaInfo

Sadis.riadom.Mischka.avi
Format : AVI
Format/Info : Audio Video Interleave
File size : 962 MiB
Duration : 1h 12mn
Overall bit rate : 1 852 Kbps
Writing library : VirtualDub build 27021/release

Video
ID : 0
Format : MPEG-4 Visual
Format settings, BVOP : 1
Format settings, QPel : No
Format settings, GMC : No warppoints
Format settings, Matrix : Default (MPEG)
Codec ID : DX50
Codec ID/Hint : DivX 5
Duration : 1h 12mn
Bit rate : 1 650 Kbps
Width : 704 pixels
Height : 448 pixels
Display aspect ratio : 16:10
Frame rate : 25.000 fps
Color space : YUV
Chroma subsampling : 4:2:0
Bit depth : 8 bits
Scan type : Progressive
Compression mode : Lossy
Bits/(Pixel*Frame) : 0.209
Stream size : 857 MiB (89%)
Writing library : DivX 1307m

Audio
ID : 1
Format : AC-3
Format/Info : Audio Coding 3
Mode extension : CM (complete main)
Format settings, Endianness : Big
Codec ID : 2000
Duration : 1h 12mn
Bit rate mode : Constant
Bit rate : 192 Kbps
Channel count : 2 channels
Channel positions : Front: L R
Sampling rate : 48.0 KHz
Bit depth : 16 bits
Compression mode : Lossy
Stream size : 99.8 MiB (10%)
Alignment : Aligned on interleaves
Interleave, duration : 40 ms (1.00 video frame)
Interleave, preload duration : 512 ms
Скриншоты:


Детали торрента:
Название:Садись рядом, Мишка (1977) DVDRip
Дата добавления:10 Дек 2013 13:15:53
Размер:962 MB
Раздают:
Качают:0
Форум:Отечественные Фильмы для детей

All rights reserved © 2015-2018