TORRENTS43.COM

Скачать Детство Никиты (1992) DVDRip


Детство Никиты (1992) DVDRip
Год выпуска: 1992
Жанр: Детский

Описание фильма:
По мотивам автобиографической повести Алексея Толстого.

Режиссер: Андрей Зеленов
Актеры: Миша Соловьёв, Олеся Фесенко, Александра Равенских, Андрей Давыдов, Павел Никитин, Лев Дуров, Анатолий Меньщиков

Продолжительность: 01:09:21
Качество видео: DVDRip



Видеокодек: Xvid
Битрейт видео: ~1125 Кбит/сек
Размер кадра: 640x464
Аудиокодек: MP3, 2 ch
Битрейт аудио: 128 Кбит/сек

MediaInfo:

Общее
Полное имя : E:\3Этап\Детство Никиты\Детство Никиты (1992) DVDRip.avi
Формат : AVI
Формат/Информация : Audio Video Interleave
Размер файла : 628 Мбайт
Продолжительность : 1 ч. 9 м.
Общий поток : 1265 Кбит/сек
Библиотека кодирования : MPlayer

Видео
Идентификатор : 0
Формат : MPEG-4 Visual
Профиль формата : Simple@L1
Параметр BVOP формата : Нет
Параметр QPel формата : Нет
Параметр GMC формата : Без точки перехода
Параметр матрицы формата : Default (H.263)
Идентификатор кодека : DX50
Идентификатор кодека/Подсказка : DivX 5
Продолжительность : 1 ч. 9 м.
Битрейт : 1125 Кбит/сек
Ширина : 640 пикселей
Высота : 464 пикселя
Соотношение сторон : 1,379
Частота кадров : 25,000 кадров/сек
Цветовое пространство : YUV
Субдискретизация насыщенности : 4:2:0
Битовая глубина : 8 бит
Тип развёртки : Чересстрочная
Порядок развёртки : Верхнее поле первое
Метод сжатия : С потерями
Бит/(Пиксели*Кадры) : 0.152
Размер потока : 558 Мбайт (89%)
Библиотека кодирования : Lavc52.0.0

Аудио
Идентификатор : 1
Формат : MPEG Audio
Версия формата : Version 1
Профиль формата : Layer 3
Режим : Joint stereo
Расширение режима : MS Stereo
Идентификатор кодека : 55
Идентификатор кодека/Подсказка : MP3
Продолжительность : 1 ч. 9 м.
Вид битрейта : Постоянный
Битрейт : 128 Кбит/сек
Каналы : 2 канала
Частота : 44,1 КГц
Метод сжатия : С потерями
Размер потока : 63,5 Мбайт (10%)
Выравнивание : Соединение по промежуткам
Продолжительность промежутка : 26 мс. (0,65 видеокадр)
Время предзагрузки промежутка : 809 мс.
Скриншоты:




Детали торрента:
Название:Детство Никиты (1992) DVDRip
Дата добавления:12 Дек 2013 12:59:10
Размер:628 MB
Раздают:
Качают:0
Форум:Отечественные Фильмы для детей

All rights reserved © 2015-2018