TORRENTS43.COM

Скачать Последняя двойка (1977) TVRip


Последняя двойка (1977) TVRip
Год выпуска: 1977
Жанр: Детский

Описание фильма:
Однажды, по непонятным причинам, весьма любознательный шестиклассник Миша Андреев потерял интерес к учебе. Парень даже смирился с тем, что останется на второй год. Однако случай сводит Мишу с молодыми учеными - соседом Павлом Петровичем и его другом Леваном. И на глазах у изумленных одноклассников двоечник становится отличником...

Режиссер: Борис Нащекин
Актеры: Саша Ивахин, Евгений Герасимов, Людмила Иванова, Анатолий Грачев, Владимир Анисько, Таня Губкина, Люся Жукова, Илья Томин

Продолжительность: 00:59:54
Качество видео: TVRip



Видеокодек: Xvid
Битрейт видео: ~1493 Кбит/сек
Размер кадра: 512x384
Аудиокодек: MP3, 2 ch
Битрейт аудио: 128 Кбит/сек

MediaInfo:

Общее
Полное имя : E:\3Этап\Последняя двойка\Последняя двойка (1977) TVRip.avi
Формат : AVI
Формат/Информация : Audio Video Interleave
Размер файла : 699 Мбайт
Продолжительность : 59 м.
Общий поток : 1631 Кбит/сек
Программа кодирования : VirtualDubMod 1.5.10.2 (build 2540/release)
Библиотека кодирования : VirtualDub build 23486/release

Видео
Идентификатор : 0
Формат : MPEG-4 Visual
Параметр BVOP формата : Да
Параметр QPel формата : Нет
Параметр GMC формата : Без точки перехода
Параметр матрицы формата : Default (H.263)
Идентификатор кодека : DX50
Идентификатор кодека/Подсказка : DivX 5
Продолжительность : 59 м.
Битрейт : 1493 Кбит/сек
Ширина : 512 пикселей
Высота : 384 пикселя
Соотношение сторон : 4:3
Частота кадров : 25,000 кадров/сек
Цветовое пространство : YUV
Субдискретизация насыщенности : 4:2:0
Битовая глубина : 8 бит
Тип развёртки : Прогрессивная
Метод сжатия : С потерями
Бит/(Пиксели*Кадры) : 0.304
Размер потока : 640 Мбайт (92%)
Библиотека кодирования : DivX 6.5.1 (UTC 2007-03)

Аудио
Идентификатор : 1
Формат : MPEG Audio
Версия формата : Version 1
Профиль формата : Layer 3
Режим : Joint stereo
Расширение режима : MS Stereo
Идентификатор кодека : 55
Идентификатор кодека/Подсказка : MP3
Продолжительность : 59 м.
Вид битрейта : Постоянный
Битрейт : 128 Кбит/сек
Каналы : 2 канала
Частота : 48,0 КГц
Метод сжатия : С потерями
Размер потока : 54,8 Мбайт (8%)
Выравнивание : Разделение по промежуткам
Продолжительность промежутка : 40 мс. (1,00 видеокадр)
Время предзагрузки промежутка : 500 мс.
Скриншоты:




Детали торрента:
Название:Последняя двойка (1977) TVRip
Дата добавления:12 Дек 2013 13:11:41
Размер:699 MB
Раздают:
Качают:0
Форум:Отечественные Фильмы для детей

All rights reserved © 2015-2018