TORRENTS43.COM

Скачать Легкие шаги (1987) DVDRip


Легкие шаги (1987) DVDRip
Год выпуска: 1987
Производство: СССР, Укртелефильм
Жанр: Сказка, Семейный

Описание фильма:
По мотивам сказок В.Каверина "Легкие шаги", "Городок Немухин", "Много хороших людей и один завистник". Действие фильма происходит в сказочном городе Немухине, где захватившие власть "мудрейшие" чиновники отменили доброту, сказки и чудеса. Но жители города не смогли смириться с этим...

Режиссер: Елена Машкара
Актеры: Михаил Ефремов, Юрий Пузырев, Светлана Скурчинская, Татьяна Окуневская, Елена Андерберг, Эрнст Романов, Владимир Головин, Иван Рыжов

Продолжительность: 01:24:08
Качество видео: DVDRip



Видеокодек: DivX 5
Битрейт видео: ~2207 Кбит/сек
Размер кадра: 720x544
Аудиокодек: MP3, 2 ch
Битрейт аудио: 128 Кбит/сек

MediaInfo:

Общее
Полное имя : E:\3Этап\Легкие шаги\Легкие шаги (1987) DVDRip.avi
Формат : AVI
Формат/Информация : Audio Video Interleave
Размер файла : 1,38 Гбайт
Продолжительность : 1 ч. 24 м.
Общий поток : 2343 Кбит/сек
Программа кодирования : VirtualDubMod 1.5.4.1 (build 2178/release)
Библиотека кодирования : VirtualDubMod build 2178/release

Видео
Идентификатор : 0
Формат : MPEG-4 Visual
Параметр BVOP формата : Нет
Параметр QPel формата : Нет
Параметр GMC формата : Без точки перехода
Параметр матрицы формата : Default (H.263)
Идентификатор кодека : DX50
Идентификатор кодека/Подсказка : DivX 5
Продолжительность : 1 ч. 24 м.
Битрейт : 2207 Кбит/сек
Ширина : 720 пикселей
Высота : 544 пикселя
Соотношение сторон : 4:3
Частота кадров : 25,000 кадров/сек
Цветовое пространство : YUV
Субдискретизация насыщенности : 4:2:0
Битовая глубина : 8 бит
Тип развёртки : Прогрессивная
Метод сжатия : С потерями
Бит/(Пиксели*Кадры) : 0.225
Размер потока : 1,30 Гбайт (94%)
Библиотека кодирования : DivX 5.0.5 (UTC 2003-04-24)

Аудио
Идентификатор : 1
Формат : MPEG Audio
Версия формата : Version 1
Профиль формата : Layer 3
Режим : Joint stereo
Расширение режима : MS Stereo
Идентификатор кодека : 55
Идентификатор кодека/Подсказка : MP3
Продолжительность : 1 ч. 24 м.
Вид битрейта : Постоянный
Битрейт : 128 Кбит/сек
Каналы : 2 канала
Частота : 48,0 КГц
Метод сжатия : С потерями
Размер потока : 77,0 Мбайт (5%)
Выравнивание : Соединение по промежуткам
Продолжительность промежутка : 80 мс. (2,00 видеокадра)
Время предзагрузки промежутка : 504 мс.
Скриншоты:




Детали торрента:
Название:Легкие шаги (1987) DVDRip
Дата добавления:12 Дек 2013 17:59:25
Размер:1,38 GB
Раздают:
Качают:0
Форум:Отечественные Фильмы для детей

All rights reserved © 2015-2018