TORRENTS43.COM

Скачать День бумажного змея (1986) DVDRip


День бумажного змея (1986) DVDRip
Год выпуска: 1986
Производство: СССР, Арменфильм
Жанр: Семейный

Описание фильма:
По мотивам рассказов Эльды Грин.
Маленькая Ани живет с мамой. Папа ушел к другой женщине, после смерти бабушки дедушка тоже стал жить отдельно. Тяжело переживает девочка разлад в семье. Ани в мечтах возвращает отца домой, но в действительности ее детские уловки ни к чему не приводят. И только беседы с любимым дедом, провожающим ее каждое утро в школу, помогают девочке восстановить душевное равновесие...

Режиссер: Геннадий Мелконян
Актеры: Алла Туманян, Микаэл Джанибекян, Микаел Погосян, Тагуи Варданян, Нина Абалян, Микаэл Джанибекян, Мартин Вартанов, Марина Липченко, Майя Маркарян, Карл Маркосян, Карен Джангирян, Евгения Подпомогова, Геннадий Мелконян, Нина Егорова, Ашот Адамян, Геральд Бежанов, Леонард Саркисов, Алла Туманян, Карина Сукиасян (Кочарян)

Продолжительность: 01:13:26
Качество видео: DVDRip



Видеокодек: Xvid
Битрейт видео: ~1229 Кбит/сек
Размер кадра: 720x504
Аудиокодек: MP3, 2 сh
Битрейт аудио: 192 Кбит/сек

MediaInfo:

Общее
Полное имя : E:\3Этап\День бумажного змея\День бумажного змея (1986) DVDRip.avi
Формат : AVI
Формат/Информация : Audio Video Interleave
Размер файла : 753 Мбайт
Продолжительность : 1 ч. 13 м.
Общий поток : 1434 Кбит/сек
Программа кодирования : Lavf51.12.1
Библиотека кодирования : VirtualDub build 32817/release

Видео
Идентификатор : 0
Формат : MPEG-4 Visual
Профиль формата : Advanced Simple@L5
Параметр BVOP формата : 2
Параметр QPel формата : Нет
Параметр GMC формата : Без точки перехода
Параметр матрицы формата : Default (H.263)
Режим смешивания : Сжатый битовый поток
Идентификатор кодека : XVID
Идентификатор кодека/Подсказка : XviD
Продолжительность : 1 ч. 13 м.
Битрейт : 1229 Кбит/сек
Ширина : 720 пикселей
Высота : 504 пикселя
Соотношение сторон : 1,429
Частота кадров : 25,000 кадров/сек
Цветовое пространство : YUV
Субдискретизация насыщенности : 4:2:0
Битовая глубина : 8 бит
Тип развёртки : Прогрессивная
Метод сжатия : С потерями
Бит/(Пиксели*Кадры) : 0.136
Размер потока : 646 Мбайт (86%)
Библиотека кодирования : XviD 64

Аудио
Идентификатор : 1
Формат : MPEG Audio
Версия формата : Version 1
Профиль формата : Layer 3
Режим : Joint stereo
Расширение режима : MS Stereo
Идентификатор кодека : 55
Идентификатор кодека/Подсказка : MP3
Продолжительность : 1 ч. 13 м.
Вид битрейта : Постоянный
Битрейт : 192 Кбит/сек
Каналы : 2 канала
Частота : 48,0 КГц
Метод сжатия : С потерями
Размер потока : 101 Мбайт (13%)
Выравнивание : Соединение по промежуткам
Продолжительность промежутка : 24 мс. (0,60 видеокадр)
Время предзагрузки промежутка : 504 мс.
Скриншоты:




Детали торрента:
Название:День бумажного змея (1986) DVDRip
Дата добавления:12 Дек 2013 18:30:52
Размер:753 MB
Раздают:
Качают:0
Форум:Отечественные Фильмы для детей

All rights reserved © 2015-2018