TORRENTS43.COM

Скачать Мы с Вулканом (1969) TVRip


Мы с Вулканом (1969) TVRip
Год выпуска: 1969
Жанр: Приключения, Детский, Семейный

Описание фильма:
Фильм по произведению детского писателя Юрия Яковлева рассказывает о мальчике, спасшем шенка от хулиганов и воспитавшем из него пограничную собаку.
По мнению писателя, "самое чисто и самобытное в человеке связано с детством. А мудрость, ум, глубина чувства, верность долгу и многие другие замечательные качества взрослого человека никогда не вступают в противоречие с драгоценным запасом детства".

Режиссер: Валентин Перов
Актеры: Виталий Беляков, Людмила Кочка, Виктор Тарасов, Евгений Буренков, Валентина Березуцкая, Галина Рогачева, Оля Ваганова

Продолжительность: 01:05:42
Качество видео: TVRip



Видеокодек: DivX 5
Битрейт видео: ~1980 Кбит/сек
Размер кадра: 480x384
Аудиокодек: MP3, 1 ch
Битрейт аудио: 96,0 Кбит/сек

MediaInfo:

Общее
Полное имя : E:\3Этап\Подг\Мы с Вулканом\Мы с Вулканом (1969) TVRip.avi
Формат : AVI
Формат/Информация : Audio Video Interleave
Размер файла : 980 Мбайт
Продолжительность : 1 ч. 5 м.
Общий поток : 2086 Кбит/сек
Название фильма : My s Vulkanom
Режиссёр : Belarus'fil'm
Дата записи : 1969
Программа кодирования : VirtualDubMod 1.5.10.2 (build 2542/release)
Библиотека кодирования : VirtualDubMod build 2542/release
Примечание : TVrip by Turtle / DivX Pro 5.2.1 @ 0,430 bpp / Lame MP3 44,1 kHz Mono @ 96 kbps

Видео
Идентификатор : 0
Формат : MPEG-4 Visual
Параметр BVOP формата : 1
Параметр QPel формата : Нет
Параметр GMC формата : Без точки перехода
Параметр матрицы формата : Default (H.263)
Режим смешивания : Сжатый битовый поток
Идентификатор кодека : DX50
Идентификатор кодека/Подсказка : DivX 5
Продолжительность : 1 ч. 5 м.
Битрейт : 1980 Кбит/сек
Ширина : 480 пикселей
Высота : 384 пикселя
Соотношение сторон : 5:4
Частота кадров : 25,000 кадров/сек
Цветовое пространство : YUV
Субдискретизация насыщенности : 4:2:0
Битовая глубина : 8 бит
Тип развёртки : Прогрессивная
Метод сжатия : С потерями
Бит/(Пиксели*Кадры) : 0.430
Размер потока : 931 Мбайт (95%)
Библиотека кодирования : DivX 5.2.1 Beta (UTC 2004-09-08)

Аудио
Идентификатор : 1
Формат : MPEG Audio
Версия формата : Version 1
Профиль формата : Layer 3
Идентификатор кодека : 55
Идентификатор кодека/Подсказка : MP3
Продолжительность : 1 ч. 5 м.
Вид битрейта : Постоянный
Битрейт : 96,0 Кбит/сек
Каналы : 1 канал
Частота : 44,1 КГц
Метод сжатия : С потерями
Задержка видео : 200 мс.
Размер потока : 45,1 Мбайт (5%)
Выравнивание : Разделение по промежуткам
Продолжительность промежутка : 40 мс. (1,00 видеокадр)
Время предзагрузки промежутка : 500 мс.
Скриншоты:




Детали торрента:
Название:Мы с Вулканом (1969) TVRip
Дата добавления:13 Дек 2013 19:51:53
Размер:980 MB
Раздают:
Качают:1
Форум:Отечественные Фильмы для детей

All rights reserved © 2015-2018