TORRENTS43.COM

Скачать Свечка, яркая как солнце (1986) DVBRip


Свечка, яркая как солнце (1986) DVBRip
Год выпуска: 1986
Жанр: Детский, Приключения, Семейный

Описание фильма:
По мотивам рассказов латышской писательницы Вии Упмале.
Живет в одном из сел Латвии мальчик Юрис. Как все дети он играет и шалит вместе с верным другом Марисом. Но есть у Юриса своя заветная тайна: редкий цветок "солнечная свечка", выращенный им в лесной чаще. Это сокровище он хочет подарить на свадьбу своей мамы и дяди Яниса. Стремясь сохранить цветок и сберечь тайну, мальчики попадают в разные истории, веселые и грустные...

Режиссер: Луция Лочмеле
Актеры: Гатис Репелис, Марис Стрелис, Элла Оша, Байба Бумбиере, Гунта Грива, Юрис Барткевич, Ирина Томсоне, Велта Страуме, Эдгар Сукурс, Янис Яранс, Байба Индриксоне

Продолжительность: 01:06:21
Качество видео: DVBRip



Видеокодек: MPEG-2
Битрейт видео: ~3483 Кбит/сек
Размер кадра: 720x576
Аудиокодек: MP2, 2 ch
Битрейт аудио: 192 Кбит/сек

MediaInfo:

Общее
Полное имя : E:\3Этап\Свечка, яркая как солнце\Свечка, яркая как солнце (1986) DVBRip.mpg
Формат : MPEG-PS
Размер файла : 1,74 Гбайт
Продолжительность : 1 ч. 6 м.
Режим общего битрейта : Переменный
Общий поток : 3750 Кбит/сек

Видео
Идентификатор : 224 (0xE0)
Формат : MPEG Video
Версия формата : Version 2
Профиль формата : Main@Main
Параметр BVOP формата : Да
Параметр матрицы формата : Выборочная
Параметр GOP формата : M=3, N=12
Продолжительность : 1 ч. 6 м.
Вид битрейта : Переменный
Битрейт : 3483 Кбит/сек
Максимальный битрейт : 5000 Кбит/сек
Ширина : 720 пикселей
Высота : 576 пикселей
Соотношение сторон : 4:3
Частота кадров : 25,000 кадров/сек
Стандарт вещания : PAL
Цветовое пространство : YUV
Субдискретизация насыщенности : 4:2:0
Битовая глубина : 8 бит
Тип развёртки : Чересстрочная
Порядок развёртки : Верхнее поле первое
Метод сжатия : С потерями
Бит/(Пиксели*Кадры) : 0.336
Временной код первого кадра : 00:00:00:00
Оригинал временного кода : Group of pictures header
Размер потока : 1,61 Гбайт (93%)

Аудио
Идентификатор : 192 (0xC0)
Формат : MPEG Audio
Версия формата : Version 1
Профиль формата : Layer 2
Продолжительность : 1 ч. 6 м.
Вид битрейта : Постоянный
Битрейт : 192 Кбит/сек
Каналы : 2 канала
Частота : 48,0 КГц
Метод сжатия : С потерями
Размер потока : 91,1 Мбайт (5%)
Скриншоты:




Детали торрента:
Название:Свечка, яркая как солнце (1986) DVBRip
Дата добавления:13 Дек 2013 22:11:49
Размер:1,74 GB
Раздают:
Качают:0
Форум:Отечественные Фильмы для детей

All rights reserved © 2015-2018