TORRENTS43.COM

Скачать Каникулы у моря (1986) DVBRip


Каникулы у моря (1986) DVBRip
Год выпуска: 1986
Производство: CCCР, Арменфильм
Жанр: Детский

Описание фильма:
Учеников восьмого класса из армянского поселка за успехи в учебе наградили поездкой к морю. Учительница Анаита Миграновна беспокоилась о том, смогут ли ребята, впервые уехавшие далеко от дома, быть дружными и дисциплинированными. Вначале все было благополучно, но в самый разгар отдыха произошло неожиданное. На пляже мальчики встретили Гражину - и все, как один, влюбились в нее. Каждый из них, стремясь понравиться девушке, проявляет какие-то человеческие качества, присущие только ему одному...

Режиссер: Яков Искударян, Мартирос Фаносян
Актеры: Марина Липченко, Пилле Пихламяги, Артем Мартиросян, Ваграм Мерангулян, В. Мардоян, Роланд Казарян, Карина Арутюнян, А. Нариманян, А. Алиханова, Артур Джавадян, Анна Багдасарян, Елена Крмоян, Эмма Зограбян, Гор Оганесян, Варфоломей Саакян, М. Мамаджанян, А. Амирян

Продолжительность: 01:04:59
Качество видео: DVBRip



Видеокодек: MPEG-2
Битрейт видео: ~2404 Кбит/сек
Размер кадра: 720x576
Аудиокодек: MP2, 2 ch
Битрейт аудио: 192 Кбит/сек

MediaInfo:

Общее
Полное имя : E:\3Этап\Каникулы у моря\Каникулы у моря (1986) DVBRip.mpg
Формат : MPEG-PS
Размер файла : 1,20 Гбайт
Продолжительность : 1 ч. 4 м.
Режим общего битрейта : Переменный
Общий поток : 2649 Кбит/сек

Видео
Идентификатор : 224 (0xE0)
Формат : MPEG Video
Версия формата : Version 2
Профиль формата : Main@Main
Параметр BVOP формата : Да
Параметр матрицы формата : Выборочная
Параметр GOP формата : M=3, N=12
Продолжительность : 1 ч. 4 м.
Вид битрейта : Переменный
Битрейт : 2404 Кбит/сек
Максимальный битрейт : 5000 Кбит/сек
Ширина : 720 пикселей
Высота : 576 пикселей
Соотношение сторон : 4:3
Частота кадров : 25,000 кадров/сек
Стандарт вещания : PAL
Цветовое пространство : YUV
Субдискретизация насыщенности : 4:2:0
Битовая глубина : 8 бит
Тип развёртки : Чересстрочная
Порядок развёртки : Верхнее поле первое
Метод сжатия : С потерями
Бит/(Пиксели*Кадры) : 0.232
Временной код первого кадра : 00:00:00:00
Оригинал временного кода : Group of pictures header
Размер потока : 1,09 Гбайт (91%)

Аудио
Идентификатор : 192 (0xC0)
Формат : MPEG Audio
Версия формата : Version 1
Профиль формата : Layer 2
Продолжительность : 1 ч. 4 м.
Вид битрейта : Постоянный
Битрейт : 192 Кбит/сек
Каналы : 2 канала
Частота : 48,0 КГц
Метод сжатия : С потерями
Размер потока : 89,2 Мбайт (7%)
Скриншоты:





Детали торрента:
Название:Каникулы у моря (1986) DVBRip
Дата добавления:13 Дек 2013 22:18:08
Размер:1,2 GB
Раздают:
Качают:0
Форум:Отечественные Фильмы для детей

All rights reserved © 2015-2018