TORRENTS43.COM

Скачать Красавица (1969) VHSRip


Красавица (1969) VHSRip
Год выпуска: 1969
Жанр: Детский, Семейный

Описание фильма:
Во дворе старого района города играют дети. Эти игры понятны только самим детям. Одна такая игра называется "Красавица"...
В те годы, фильм "Красавица" был и хвален и критикован за непонятные вещи, например "мутную концепцию фильма". Как часто бывало, концепция у А.Жебрюнаса явно поэтическая. Старый, добрый фильм о детстве и не только о нем...

Режиссер: Арунас Жебрюнас
Актеры: Инга Мицките, Лилиана Жадейките, Сергей Мартинсон, Таурас Рагалявичюс

Продолжительность: 01:03:59
Качество видео: VHSRip



Видеокодек: Xvid
Битрейт видео: ~1235 Кбит/сек
Размер кадра: 704x320
Аудиокодек: AC3 2.0
Битрейт аудио: 192 Кбит/сек
Audio1: AC3, 2.0, 192 Кбит/сек - русский
Audio2: AC3, 2.0, 192 Кбит/сек - литовский

MediaInfo:

Общее
Полное имя : E:\3Этап\Красавица 1969\Красавица (1969) VHSRip.avi
Формат : AVI
Формат/Информация : Audio Video Interleave
Размер файла : 748 Мбайт
Продолжительность : 1 ч. 3 м.
Общий поток : 1634 Кбит/сек
Поручитель : DVDRip by romaska
Программа кодирования : VirtualDubMod 1.6.0.0 SURROUND (build 2560/release)
Библиотека кодирования : VirtualDubMod build 2560/release

Видео
Идентификатор : 0
Формат : MPEG-4 Visual
Параметр BVOP формата : 1
Параметр QPel формата : Нет
Параметр GMC формата : Без точки перехода
Параметр матрицы формата : Default (H.263)
Режим смешивания : Сжатый битовый поток
Идентификатор кодека : DX50
Идентификатор кодека/Подсказка : DivX 5
Продолжительность : 1 ч. 3 м.
Битрейт : 1235 Кбит/сек
Ширина : 704 пикселя
Высота : 320 пикселей
Соотношение сторон : 2,2:1
Частота кадров : 25,000 кадров/сек
Цветовое пространство : YUV
Субдискретизация насыщенности : 4:2:0
Битовая глубина : 8 бит
Тип развёртки : Прогрессивная
Метод сжатия : С потерями
Бит/(Пиксели*Кадры) : 0.219
Размер потока : 565 Мбайт (76%)
Библиотека кодирования : DivX 6.8.5 (UTC 2009-08-20)

Аудио #1
Идентификатор : 1
Формат : AC-3
Формат/Информация : Audio Coding 3
Расширение режима : CM (complete main)
Параметр Endianness формата : Big
Идентификатор кодека : 2000
Продолжительность : 1 ч. 3 м.
Вид битрейта : Постоянный
Битрейт : 192 Кбит/сек
Каналы : 2 канала
Расположение каналов : Front: L R
Частота : 48,0 КГц
Битовая глубина : 16 бит
Метод сжатия : С потерями
Задержка видео : 200 мс.
Размер потока : 87,9 Мбайт (12%)
Выравнивание : Разделение по промежуткам
Продолжительность промежутка : 40 мс. (1,00 видеокадр)
Время предзагрузки промежутка : 500 мс.

Аудио #2
Идентификатор : 2
Формат : AC-3
Формат/Информация : Audio Coding 3
Расширение режима : CM (complete main)
Параметр Endianness формата : Big
Идентификатор кодека : 2000
Продолжительность : 1 ч. 3 м.
Вид битрейта : Постоянный
Битрейт : 192 Кбит/сек
Каналы : 2 канала
Расположение каналов : Front: L R
Частота : 48,0 КГц
Битовая глубина : 16 бит
Метод сжатия : С потерями
Задержка видео : 200 мс.
Размер потока : 87,9 Мбайт (12%)
Выравнивание : Разделение по промежуткам
Продолжительность промежутка : 40 мс. (1,00 видеокадр)
Время предзагрузки промежутка : 500 мс.
Скриншоты:


Смотреть Online

http://moonwalk.cc/video/b6bcce274a20c51d/iframe
Детали торрента:
Название:Красавица (1969) VHSRip
Дата добавления:13 Дек 2013 22:36:21
Размер:748 MB
Раздают:
Качают:0
Форум:Отечественные Фильмы для детей

All rights reserved © 2015-2018