TORRENTS43.COM

Скачать Ретивый поросенок (1979) TVRip


Ретивый поросенок (1979) TVRip
Год выпуска: 1979
Жанр: Детский, Комедия

Описание фильма:
Кинокомедия об озорном поросенке и его добрых, веселых хозяевах. Своими проделками поросенок прославился на всё село. Намаявшись с ним хозяева - Марта и её сын Кукури - повезли проказника в Тбилиси на базар.

Режиссер: Резо Чархалашвили
Актеры: Сесилия Такаишвили, Зураб Капианидзе, Лия (Лиана) Гудадзе, Ева Хутунашвили, Григол Талаквадзе, Зураб Лаперадзе

Продолжительность: 00:45:14
Качество видео: TVRip



Видеокодек: Xvid
Битрейт видео: ~1580 Kbps
Размер кадра: 720 x 544
Аудиокодек: MP3, 2 ch
Битрейт аудио: 320 kbps

MediaInfo

Retivy porosenok.avi
Format : AVI
Format/Info : Audio Video Interleave
File size : 617 MiB
Duration : 45mn 15s
Overall bit rate : 1 908 Kbps

Video
ID : 0
Format : MPEG-4 Visual
Format profile : Simple@L3
Format settings, BVOP : No
Format settings, QPel : No
Format settings, GMC : No warppoints
Format settings, Matrix : Default (H.263)
Codec ID : XVID
Codec ID/Hint : XviD
Duration : 45mn 14s
Bit rate : 1 581 Kbps
Width : 720 pixels
Height : 544 pixels
Display aspect ratio : 4:3
Frame rate : 25.000 fps
Color space : YUV
Chroma subsampling : 4:2:0
Bit depth : 8 bits
Scan type : Progressive
Compression mode : Lossy
Bits/(Pixel*Frame) : 0.161
Stream size : 512 MiB (83%)
Writing library : ZJMedia MPEG Encoder

Audio
ID : 1
Format : MPEG Audio
Format version : Version 1
Format profile : Layer 3
Mode : Joint stereo
Mode extension : MS Stereo
Codec ID : 55
Codec ID/Hint : MP3
Duration : 45mn 15s
Bit rate mode : Constant
Bit rate : 320 Kbps
Channel count : 2 channels
Sampling rate : 44.1 KHz
Compression mode : Lossy
Stream size : 104 MiB (17%)
Alignment : Split accross interleaves
Interleave, duration : 1000 ms (24.99 video frames)
Скриншоты:


Детали торрента:
Название:Ретивый поросенок (1979) TVRip
Дата добавления:14 Дек 2013 11:01:55
Размер:617 MB
Раздают:
Качают:0
Форум:Отечественные Фильмы для детей

All rights reserved © 2015-2018