TORRENTS43.COM

Скачать Красные пчёлы (1972) DVDRip


Красные пчёлы (1972) DVDRip
Год выпуска: 1972
Жанр: Детский, Приключения

Описание фильма:
В 1922 году в небольшом городке ребята создали пионерский отряд и назвали его "Красные пчёлы".
Интересный фильм того времени, отражающий жизнь, интересы и быт пролетариата. Снимался этот фильм в городе Коврове, что во Владимирской губернии. Для съёмок этого фильма был разобран и сожжен старый деревянный мост через реку Клязьма, правда после открытия нового, бетонного.

Режиссер: Леонид Макарычев
Актеры: Николай Боярский, Андрей Галкин, Геннадий Дюдяев, Михаил Кононов, Иван Краско, Андрей Крупенин, Владимир Лелётко, Юрий Медведев, Михаил Мудров, Аркадий Трусов, Николай Федорцов, Георгий Штиль

Продолжительность: 01:07:20
Качество видео: DVDRip



Видеокодек: DivX 5
Битрейт видео: ~2200 Kbps
Размер кадра: 664 x 528
Аудиокодек: MP3, 1 ch
Битрейт аудио: 112 kbps

MediaInfo

krasnye.pchely.avi
Format : AVI
Format/Info : Audio Video Interleave
File size : 1.09 GiB
Duration : 1h 7mn
Overall bit rate : 2 322 Kbps
Writing application : VirtualDubMod 1.5.10.2 (build 2542/release)
Writing library : VirtualDubMod build 2542/release

Video
ID : 0
Format : MPEG-4 Visual
Format settings, BVOP : Yes
Format settings, QPel : No
Format settings, GMC : No warppoints
Format settings, Matrix : Default (H.263)
Codec ID : DX50
Codec ID/Hint : DivX 5
Duration : 1h 7mn
Bit rate : 2 200 Kbps
Width : 664 pixels
Height : 528 pixels
Display aspect ratio : 5:4
Original display aspect ratio : 5:4
Frame rate : 25.000 fps
Color space : YUV
Chroma subsampling : 4:2:0
Bit depth : 8 bits
Scan type : Progressive
Compression mode : Lossy
Bits/(Pixel*Frame) : 0.251
Stream size : 1.03 GiB (95%)
Writing library : DivX 6.8.0 (UTC 2007-12-04)

Audio
ID : 1
Format : MPEG Audio
Format version : Version 1
Format profile : Layer 3
Codec ID : 55
Codec ID/Hint : MP3
Duration : 1h 7mn
Bit rate mode : Constant
Bit rate : 112 Kbps
Channel count : 1 channel
Sampling rate : 48.0 KHz
Compression mode : Lossy
Stream size : 53.9 MiB (5%)
Alignment : Aligned on interleaves
Interleave, duration : 40 ms (1.00 video frame)
Interleave, preload duration : 504 ms
Writing library : LAME3.97
Encoding settings : -m m -V 4 -q 0 -b 112
Скриншоты:


Детали торрента:
Название:Красные пчёлы (1972) DVDRip
Дата добавления:14 Дек 2013 11:44:35
Размер:1,09 GB
Раздают:1
Качают:0
Форум:Отечественные Фильмы для детей

All rights reserved © 2015-2018