TORRENTS43.COM

Скачать Приключения Кроша (1961) DVDRip


Приключения Кроша (1961) DVDRip
Год выпуска: 1961
Жанр: Детский, Детектив, Приключения

Описание фильма:
Фильм снят по одноименной повести А.Рыбакова.
Ученики девятого класса одной из московских школ проходят летнюю практику на крупной автобазе. Быстро освоившись с организацией незамысловатого труда ремонтника, ребята выбирают в своем дружном коллективе снабженца - и каждый находит практику в чем-то полезной. Только Сережа Крашенинников (Крош) со своими гуманитарными способностями и полным отсутствием интереса к технике, явно выбивается из дружного коллектива. Но происходит ЧП: со склада пропадает новенький амортизатор, а затем и машина. И наблюдательный Крош берет на себя функции детектива.

Режиссер: Генрих Оганисян
Актеры: Никита Михалков, Савелий Крамаров, Николай Томашевский, Андрей Юренев, Светлана Балашова, Николай Парфенов, Владимир Кашпур, Нина Шатерникова, Лариса Лужина

Продолжительность: 01:20:31
Качество видео: DVDRip



Видеокодек: DivX 5
Битрейт видео: ~1080 kbps
Размер кадра: 640 x 480
Аудиокодек: MP3, 2 ch
Битрейт аудио: 128 Kbps

MediaInfo

Prikljuchenija_Krosha_1961_DVDRip.avi
Format : AVI
Format/Info : Audio Video Interleave
File size : 700 MiB
Duration : 1h 20mn
Overall bit rate : 1 216 Kbps
Writing application : VirtualDubMod 1.5.4.1 (build 2178/release)
Writing library : VirtualDubMod build 2178/release

Video
ID : 0
Format : MPEG-4 Visual
Format settings, BVOP : 1
Format settings, QPel : No
Format settings, GMC : No warppoints
Format settings, Matrix : Default (H.263)
Muxing mode : Packed bitstream
Codec ID : DX50
Codec ID/Hint : DivX 5
Duration : 1h 20mn
Bit rate : 1 081 Kbps
Width : 640 pixels
Height : 480 pixels
Display aspect ratio : 4:3
Frame rate : 25.000 fps
Color space : YUV
Chroma subsampling : 4:2:0
Bit depth : 8 bits
Scan type : Progressive
Compression mode : Lossy
Bits/(Pixel*Frame) : 0.141
Stream size : 622 MiB (89%)
Writing library : DivX 5.2.1 (WaffleDay) (UTC 2004-09-08)

Audio
ID : 1
Format : MPEG Audio
Format version : Version 1
Format profile : Layer 3
Mode : Joint stereo
Mode extension : MS Stereo
Codec ID : 55
Codec ID/Hint : MP3
Duration : 1h 20mn
Bit rate mode : Constant
Bit rate : 128 Kbps
Channel count : 2 channels
Sampling rate : 48.0 KHz
Compression mode : Lossy
Stream size : 73.7 MiB (11%)
Alignment : Aligned on interleaves
Interleave, duration : 80 ms (2.00 video frames)
Interleave, preload duration : 504 ms
Writing library : LAME3.98r
Encoding settings : -m j -V 4 -q 2 -lowpass 17 -b 128
Скриншоты:


Детали торрента:
Название:Приключения Кроша (1961) DVDRip
Дата добавления:14 Дек 2013 12:18:22
Размер:700 MB
Раздают:
Качают:0
Форум:Отечественные Фильмы для детей

All rights reserved © 2015-2018