TORRENTS43.COM

Скачать Легенда о ледяном сердце (1957) TVRip


Легенда о ледяном сердце (1957) TVRip
Год выпуска: 1957
Жанр: Детский, Сказка, Приключения

Описание фильма:
По киргизской народной сказке, перенесенной в современность. Актриса, певица и танцовщица Айнакан не способна любить из-за холодного сердца. С помощью волшебника влюбленный в нее экскаваторщик Мээркан растапливает ее сердце звуками свирели — чоор. Алчный директор театра сжигает свирель, но юноша жаром своей любви снова растапливает сердце девушки.

Режиссер: Алексей Сахаров, Эльдар Шенгелая
Актеры: Д. Ибрагимова, Асанбек (Арсен) Умуралиев, К. Бектенов, Муратбек Рыскулов, А. Баталиев, Сабира Кумушалиева

Продолжительность: 01:10:16
Качество видео: TVRip



Видеокодек: Xvid
Битрейт видео: ~1850 Kbps
Размер кадра: 640 x 480
Аудиокодек: MP3, 2 ch
Битрейт аудио: 128 kbps

MediaInfo

Legenda.o.ledjanom.serdce.1957.avi
Format : AVI
Format/Info : Audio Video Interleave
File size : 1 003 MiB
Duration : 1h 10mn
Overall bit rate : 1 996 Kbps

Video
ID : 0
Format : MPEG-4 Visual
Format profile : Advanced Simple@L5
Format settings, BVOP : Yes
Format settings, QPel : No
Format settings, GMC : No warppoints
Format settings, Matrix : Default (MPEG)
Codec ID : XVID
Codec ID/Hint : XviD
Duration : 1h 10mn
Bit rate : 1 851 Kbps
Width : 640 pixels
Height : 480 pixels
Display aspect ratio : 4:3
Frame rate : 25.000 fps
Color space : YUV
Chroma subsampling : 4:2:0
Bit depth : 8 bits
Scan type : Progressive
Compression mode : Lossy
Bits/(Pixel*Frame) : 0.241
Stream size : 930 MiB (93%)
Writing library : XviD 1.1.2 (UTC 2006-11-01)

Audio
ID : 1
Format : MPEG Audio
Format version : Version 1
Format profile : Layer 3
Mode : Joint stereo
Mode extension : MS Stereo
Codec ID : 55
Codec ID/Hint : MP3
Duration : 1h 10mn
Bit rate mode : Constant
Bit rate : 128 Kbps
Channel count : 2 channels
Sampling rate : 48.0 KHz
Compression mode : Lossy
Delay relative to video : 16ms
Stream size : 64.3 MiB (6%)
Alignment : Split accross interleaves
Interleave, duration : 24 ms (0.60 video frame)
Скриншоты:


Детали торрента:
Название:Легенда о ледяном сердце (1957) TVRip
Дата добавления:14 Дек 2013 13:19:58
Размер:1003 MB
Раздают:
Качают:0
Форум:Отечественные Фильмы для детей

All rights reserved © 2015-2018