TORRENTS43.COM

Скачать Митька Лелюк (1938) TVRip


Митька Лелюк (1938) TVRip
Год выпуска: 1938
Жанр: Военный, Детский

Описание фильма:
Об участии детей в партизанском движении. Действия происходят на Украине в годы Гражданской войны.

Режиссер: Алексей Маслюков, Мячеслава Маевская
Актеры: Л.Фесенко, Н.Великая, Н.Ужвий, Э.Боярчук, Л.Гитлин, В.Коновалов, Е.Пономаренко, И.Кононенко, Н.Братерский, М. Макарова, Д.Кадников,И.Маяк, А.Мальский, В.Поддубный, М.Горнатко, А.Дорошевич.

Продолжительность: 01:16:38
Качество видео: TVRip



Видеокодек: Xvid
Битрейт видео: ~1600 Кбит/сек
Размер кадра: 699х566
Аудиокодек: MP3, 2 сh
Битрейт аудио: 128 Кбит/сек

MediaInfo:

Общее
Полное имя : E:\3Этап\Митька Лелюк\Митька Лелюк (1938) TVRip.avi
Формат : AVI
Формат/Информация : Audio Video Interleave
Размер файла : 952 Мбайт
Продолжительность : 1 ч. 16 м.
Общий поток : 1737 Кбит/сек
Программа кодирования : VirtualDubMod 1.5.10.2 (build 2542/release)
Библиотека кодирования : VirtualDubMod build 2542/release

Видео
Идентификатор : 0
Формат : MPEG-4 Visual
Профиль формата : Advanced Simple@L5
Параметр BVOP формата : 2
Параметр QPel формата : Нет
Параметр GMC формата : Без точки перехода
Параметр матрицы формата : Default (H.263)
Режим смешивания : Сжатый битовый поток
Идентификатор кодека : XVID
Идентификатор кодека/Подсказка : XviD
Продолжительность : 1 ч. 16 м.
Битрейт : 1600 Кбит/сек
Ширина : 696 пикселей
Высота : 566 пикселей
Соотношение сторон : 5:4
Соотношение сторон в оригинале : 5:4
Частота кадров : 25,000 кадров/сек
Цветовое пространство : YUV
Субдискретизация насыщенности : 4:2:0
Битовая глубина : 8 бит
Тип развёртки : Прогрессивная
Метод сжатия : С потерями
Бит/(Пиксели*Кадры) : 0.162
Размер потока : 877 Мбайт (92%)
Библиотека кодирования : XviD 1.2.1 (UTC 2008-12-04)

Аудио
Идентификатор : 1
Формат : MPEG Audio
Версия формата : Version 1
Профиль формата : Layer 3
Идентификатор кодека : 55
Идентификатор кодека/Подсказка : MP3
Продолжительность : 1 ч. 16 м.
Вид битрейта : Постоянный
Битрейт : 128 Кбит/сек
Каналы : 2 канала
Частота : 48,0 КГц
Метод сжатия : С потерями
Размер потока : 70,1 Мбайт (7%)
Выравнивание : Соединение по промежуткам
Продолжительность промежутка : 40 мс. (1,00 видеокадр)
Время предзагрузки промежутка : 504 мс.
Скриншоты:




Детали торрента:
Название:Митька Лелюк (1938) TVRip
Дата добавления:14 Дек 2013 13:33:56
Размер:952 MB
Раздают:
Качают:0
Форум:Отечественные Фильмы для детей

All rights reserved © 2015-2018