TORRENTS43.COM

Скачать Два дня чудес (1970) DVDRip


Два дня чудес (1970) DVDRip
Год выпуска: 1970
Жанр: Семейный, Детский, Комедия

Описание фильма:
По пьесе Юрия Сотника "Просто ужас".
Устав от бесконечных претензий, отец и сын Мурашевы, чтобы лучше понять проблемы друг друга, решили поменяться своими обязанностями, воспользовавшись услугами двух молоденьких фей-студенток.
Феи-недоучки Ромашка и Фиалка из Института Добрых Волшебников отправились на производственную практику для совершения «Доброго Чуда». Оказавшись на теплоходе феи натолкнулись на семью заведующего физиотерапевтическим отделением поликлиники Вадима Леонидовича, благополучно возвращающегося из отпуска. Случайно подслушав разговор отца и сына, феи предложили поменять их местами, а маму превратить в девочку. Вадим не воспринял предложение серьёзно и шутя согласился. Феи обрадовавшись возможности совершить «Доброе Чудо» начертали в воздухе заклинание и превратили папу в сына, сына в отца, а маму, к сожалению, в кактус.

Режиссер: Лев Мирский
Актеры: Леонид Куравлев, Боря Майхровский, Л.Белинская, Михаил Козаков, Ольга Аросева, Тамара Чернова, Наталья Маркина, Е.Мозговая, Эраст Гарин, Юрий Критенко

Продолжительность: 01:03:56
Качество видео: DVDRip



Видеокодек: DivX 5
Битрейт видео: ~1650 kbps
Размер кадра: 720 x 368
Аудиокодек: AC3 2.0
Битрейт аудио: 384 kbps

MediaInfo

Dva_dnja_chudes.avi
Format : AVI
Format/Info : Audio Video Interleave
File size : 935 MiB
Duration : 1h 3mn
Overall bit rate : 2 044 Kbps
Writing library : VirtualDub build 27021/release

Video
ID : 0
Format : MPEG-4 Visual
Format settings, BVOP : 1
Format settings, QPel : No
Format settings, GMC : No warppoints
Format settings, Matrix : Default (MPEG)
Codec ID : DX50
Codec ID/Hint : DivX 5
Duration : 1h 3mn
Bit rate : 1 650 Kbps
Width : 720 pixels
Height : 368 pixels
Display aspect ratio : 1.957
Frame rate : 25.000 fps
Color space : YUV
Chroma subsampling : 4:2:0
Bit depth : 8 bits
Scan type : Progressive
Compression mode : Lossy
Bits/(Pixel*Frame) : 0.249
Stream size : 755 MiB (81%)
Writing library : DivX 1307m

Audio
ID : 1
Format : AC-3
Format/Info : Audio Coding 3
Mode extension : CM (complete main)
Format settings, Endianness : Big
Codec ID : 2000
Duration : 1h 3mn
Bit rate mode : Constant
Bit rate : 384 Kbps
Channel count : 2 channels
Channel positions : Front: L R
Sampling rate : 48.0 KHz
Bit depth : 16 bits
Compression mode : Lossy
Stream size : 176 MiB (19%)
Alignment : Aligned on interleaves
Interleave, duration : 40 ms (1.00 video frame)
Interleave, preload duration : 512 ms
Скриншоты:




Все раздачи этого фильма

Детали торрента:
Название:Два дня чудес (1970) DVDRip
Дата добавления:14 Дек 2013 15:52:00
Размер:935 MB
Раздают:2
Качают:0
Форум:Отечественные Фильмы для детей

All rights reserved © 2015-2018